ZIGG-ZAGG

BPM EASY BASIC ADVANCED EXPERT MASTER Re:MASTER
138 3 6 6 8 10+ 11+

EASY


BASIC


ADVANCED


EXPERT


MASTER

(138){1}
6h[4:3],
2h[4:3],
5h[4:3],
1h[4:3],
{4}
6h[4:3]/2,2,2,2,
6h[4:3]/2,3,1,3,
2-5[8:1],,7-4[8:1],,
2,4,2,4,

8-3[8:1],2-6[8:1],,5,
1-6[8:1],7-3[8:1],,4,
34,34,68,68,
26,26,78,78,
37,26,{8}45,34,{4}45,
3-8[8:1]/7-4[8:1],,3-6[8:1]/7-2[8:1],,
3h[4:1],4h[4:1],5h[4:1],6h[1:1],
,1,8,7,

6b,1,23,27,
1,78,67,36,
12,56,78,34,
3-8[8:1],3,3-6[8:1],3,
5,46,78,12,
4,35,12,78,
12,56,78,34,
6-1[8:1],6,6-3[8:1],6,

5h[4:1]/4,4,6h[4:1]/3,3,
2h[4:1]/7,7,8h[4:1]/1,1,
7-2[8:1]/6,,2/3-6[8:1],,
2h[4:1]/7h[4:1],,3h[4:1]/6h[4:1],,
7^4[8:1],,3^8[8:1],,
7h[4:1],8h[4:1],1h[4:1],,
8h[4:1]/1,1,2h[4:1]/7,7,
6h[4:1]/3,3,4h[4:1]/5,5,

24,14,7^2[8:1]/4,4,
57,58,2^7[8:1]/5,5,
78,27,34,36,
8-5[8:1],,1-4[8:1],,
67,57,47,37,
{16}12,,,18,,,28,,{4},1,
5h[4:1]/1,2,4h[4:1]/8,7,
6,7-2[4:1],8,1,

{16}78,,,23,,,6-2[8:1],,{4},3,
{16}12,,,67,,,3-7[8:1],,{4},6,
{16}12,,,17,,,4-1[8:1],,{4},8,
{16}78,,,28,,,5-8[8:1],,{4},1,
56,34,46,35,
7,2,8,1,
{16}8,,,1,,,2h[2:1],,1,,,8,,,7,,
{4}6h[1:1],8,1,8,
1,,,7b/8b,

8^3[8:1]/6,4,7,78,
4^7[8:1]/2,8,3,12,
68,68,13,13,
23,45,67,37,
3-6[4:1]/2,3,4,78,
6-3[4:1]/7,5,4,12,
3^8[4:3]/7^4[4:3],,,,
,16,28,35,
{1}6b,
,
E

名前:
コメント:

タグ:

+ タグ編集
  • タグ:

このサイトはreCAPTCHAによって保護されており、Googleの プライバシーポリシー利用規約 が適用されます。

最終更新:2021年04月22日 23:58