Tell Your World

アーティスト livetune

BPM EASY BASIC ADVANCED EXPERT MASTER Re:MASTER
150 1 6 6 10 12 13

EASY


BASIC

(150.0){1},,,,,,,,
{1}3h[1:1],,
{1}6h[1:1],,
{1}2h[2:1],
{1}1h[2:1],
{1}1-4[4:3],,
{4},3,,3,
{4},3,,1,
{4},1,,8,
{4},6,,,
{4},2h[2:1],,,
{4},2,,7,
{4},4/5,,3,
{4},2,,6,
{4},,,1b,
{4},2,2,1,
{4},5,4,5,
{4},7,8,1,
{4},1,2,3,
{4},6,3,5/6,
{4},2/7,,2,
{4},1^6[2:1],,,
{4},,,1b,
{4},6,,3,
{4},6,,3,
{4},2,1,3,
{4},7,8,6,
{4},6,3,5/6,
{4},2/7,,,
{2}2h[4:1],2h[4:1]/3h[4:1],
{4}8,8,1,1,
{1}1h[1:1],
{2},8-5[4:3],{1},
{2},4-1[4:3],{1},
{2},1^4[4:3],{1},
{4},,,1b,
{4},2,2,1,
{4},5,4,5,
{4},7,8,1,
{4},1,2,3,
{4},6,3,5/6,
{4},2/7,,2,
{4},1^6[2:1],,,
{4},,,1b,
{4},6,,3,
{4},6,,3,
{4},2,1,3,
{4},7,8,6,
{4},6,3,5/6,
{4},2/7,,,
{2}2h[4:1],2h[4:1]/3h[4:1],
{4}8,8,1,1,
{1}1h[1:1],
{2},8-5[4:5],{1},,
{4},1,1,3/6,
{4},5,4,3/6,
{4},7,1,8,
{4},3,2,,
{2}1-4[4:5],{1},,
E

ADVANCED

(150.0){1}1h[4:7],,
{1}2h[4:7],,
{1}8h[4:7],,
{1}7h[1:1],
{1}2b,
{2}2,2,
{2}1,1,
{2}7,7,
{2}8,8,
{2}3,3,
{2}4,4,
{2}6,6,
{1}5b,
{4}1,1,2,,
{4}8,8,7,,
{4}2,2,3,,
{4}7,7,6,,
{4}3,4,5,,
{4}6,5,4,,
{4}4,5,4/5,,
{4}3,6,2,7h[4:3],
{4},,,1b/8b,
{4}2h[4:1],1,5h[4:1],4,
{4}8h[4:1],7,6h[4:1],3,
{2}1-4[8:1],8-5[8:1],
{2}2-5[8:1],7-4[8:1],
{4}2,1,8,7,
{4}6,5,4,3,
{4}1/2,2,7/8,7,
{4}3/4,3,5/6,6b,
{4}7h[4:1],8,3h[4:1],4,
{4}1h[4:1],2,5h[4:1],6,
{2}8-5[8:1],1-4[8:1],
{2}7-4[8:1],2-5[8:1],
{4}7,8,1,2,
{4}3,4,5,6,
{4}7/8,7/8,1/2,1/2,
{4}5/6,5/6,3/4,3b/4b,
{1}1h[2:3],
{2},2h[2:1],
{1}3h[2:3],
{2},2h[2:1],
{1}1h[2:3],
{2},8h[2:1],
{8}7,7,7h[4:3],,,,,,
{4},,,1b/2b,
{4}2h[4:1],1,6h[4:1],5,
{4}8h[4:1],7,4h[4:1],3,
{2}1-5[8:1],8-4[8:1],
{2}1^4[8:1],8^5[8:1],
{4}1,2,3,4,
{4}5,6,7,8,
{4}1/8,1/8,4/5,4/5,
{4}1/2,1/2,7/8,7b/8b,
{4}7h[4:1],8,4h[4:1],5,
{4}1h[4:1],2,3h[4:1],6,
{2}8-5[8:1],1-4[8:1],
{2}7-2[8:1],3-6[8:1],
{4}7,8,1,2,
{4}3,4,5,6,
{4}2/7,2/7,3/6,3/6,
{4}5/6,4/7,3/8,1b/2b,
{1}1h[2:3],
{2},2h[2:1],
{1}3h[4:7],,
{1}4h[1:1],
{2}5h[2:1],6h[2:1],
{1}7h[2:3],
{2},8h[2:1],
{4}1-5[2:3],,,{1},,
E

EXPERT

(150.0){1},
{4},,,7,
{1}8h[1:1],
{1}7h[1:1],
{1}1^4[2:1],,
{4},,,1^6[2:1],{1},
{4}3,3^8[2:1],,,
{8},,,,6,5,6,6^3[8:3],{1},
{8},,,6,5,,5,6,
{4},2h[2:1]/5h[2:1],,,
{1}5h[4:3]/4^1[2:1],
{1}5h[4:3]/1-4[2:1],
{4}2h[4:1],6,2-5[4:1]/7-4[4:1],,
{4},3/6,5/6,3/6,
{4}5/6,6/3h[2:1],1,8,
{2}1-4[4:1],8-5[4:1],
{8}3h[8:3],,,6h[8:5],5,,5h[4:1],,
{4},1h[2:1]/2h[2:1],,,
{4}2h[4:1]/3h[4:1],,1/7h[4:1],5,
{4}4h[4:1]/5h[4:1],,3h[4:1],4,
{4}7h[4:1],6,1h[4:1],3,
{4}3/5,1b/8b,6-1[8:1],,
{4}6,2/3,4,1/8,
{8}8,,4/5,,3,4,6,5,
{4}2/7,1/8,7/8,1/2,
{2}4^7[8:1]/8^3[8:1],4h[4:1]/8^5[8:1],
{4}6/7,4/3h[4:1],6h[4:1],5,
{4}3/6,3/6,1/5,2/6,
{4}4/8-3[8:1],4,4/2-5[8:1],4,
{4}4,4,4/6-1[8:1],,
{2}4/3-6[8:1],5/6-3[8:1],
{4}4/5,4^7[8:1]/5^2[8:1],,1/8,
{4}1/7h[1:1],5,6,2,
{2}1^4[8:1],8^5[8:1],
{4}6/7,4/3h[4:1],6h[4:1],5,
{4}3/6,3/6,1/5,2/6,
{2}2h[4:1],2h[4:1]/3h[4:1],
{4}3/6,6-1[8:1],5-2[8:1],,
{1}1h[4:3]/5h[4:3],
{4}1/5,3/7,{2}4h[2:3]/8-5[4:5],{1},
{2},5h[2:3]/4^1[4:5],{1},
{2},6h[2:3]/8^3[4:5],{1},
{2},6-1[8:1],
{4}6,2/3,4,1/8,
{8}8,,4/5,,3,4,6,5,
{4}2/7,1/8,7/8,1/2,
{2}4^7[8:1]/8^3[8:1],4h[4:1]/8^5[8:1],
{4}6/7,4/3h[4:1],6h[4:1],5,
{4}2/7,2/7,1/5,2/6,
{2}4h[4:1]/8-3[8:1],4h[4:1]/2-5[8:1],
{4}4h[4:1],6,4/6-1[8:1],,
{2}4/3-6[8:1],5/6-3[8:1],
{4}4/5,4^7[8:1]/5^2[8:1],,1/8,
{4}1/7h[1:1],5,6,2,
{2}1^4[8:1],8^5[8:1],
{4}6/7,4/3h[4:1],6h[4:1],5,
{4}3/6,3/6,1/5,2/6,
{2}2h[8:3],2h[8:3]/3h[8:3],
{4}3/6,6-1[8:1],5-2[8:1],,
{1}1h[4:3]/5h[4:3],
{4}2/6,3/7,{2}4h[4:9]/8-5[1:1],{1},
{4}2,2,7h[4:1],,
{8}1/5h[4:1],,1,,3/6,4/5,3/6,,
{8}6/3h[4:1],,4,,3/6,4/5,3/6,,
{4}4/7,5/1-4[4:1],,5,
{4}2/4,7/1-5[4:1],,1b,
{1}1-4[4:7],,,
E

MASTER

(150){8}
2,1,8,7h[2:1],,5,4,3h[2:1],
,4,5,6h[2:1],,4,3,2,
7,8,1,2h[2:1],,4,5,6h[2:1],
,5,4,3h[2:1],,5,6,7,
8,1,2,3h[2:1],,2,1,8h[2:1],
,7,6,5h[2:1],,4,3,2,
1,8,7^2[4:1],7,,,7b,7b,

,,,3,3,2,2,1,
7h[8:3],,,6,6h[8:3],,,5,
5h[8:3],,,4,5,6,7,8-3[2:1],
,,4-7[2:1],,,,,,
,,,8,1h[4:1],,2,3h[4:1],
,4,5h[8:5],,,,,6,
7h[4:1],,8h[4:1],,1h[4:1],,2h[4:1],,
6h[2:1],,,,5h[2:1],,,4,
4,,,2,3,4,5,6,
3h[8:3],,,5,5h[8:3],,,7,
7h[8:3],,,2,3,4,5,6-1[2:1],
,,2-5[2:1],,,,,,
,,,6,5h[4:1],,4,4h[4:1],
,3,2h[8:5],,,,,3,
4h[4:1],,5,4,,5,,37,
4h[4:1]/8h[4:1],,,15,2h[4:1]/6h[4:1],,,37,
4,,5,,6,,7h[4:3],,

,,,,6-1[16:1],,,,
7h[4:1],,6,6h[4:1],,5h[4:1],,3h[4:1],
,1,,8,7,6,5,4,
3h[4:1],,2,1-4[8:1],,1-5[8:1],,1-6[8:1],
,,,7,8,1,2,3,
4^1[8:1],,5,6,7,2h[4:1],,6h[4:1],
,4h[4:1],,8-5[8:1],1,2,3,4,
5h[2:1],,,3,3h[4:1],,7,7h[4:1],
,6,,7h[8:1],6-1[16:1],6,,,
8h[4:1],,7,6,,45,,23,
,18,,6,5,4,3,2,
1h[4:1],,7,7h[4:1],,6,,18,
,23,,2,3,4,5,6,
7^2[8:1],,6,5,4,3,,12,
,78,,6,7,8,1,2,
3h[2:1],,,4,4h[4:1],,,5,
6-3[16:1],,6-2[16:1],,6-1[16:1],,,,
{4}
2h[4:13],,,,
,,8h[4:1],,
1h[4:7],,,,
,,3h[4:7],,
4h[4:7],,,,
,,5h[4:3],,
{8}6,6,{4}7h[4:5],,,

{8}
,,,,6-1[16:1],,,,
1^6[16:1],,,5h[4:1],,4h[4:1],,3h[4:1],
,1,,5,4,3,2,1,
8^3[16:1],,,4-7[16:1],,4-8[16:1],,4-1[16:1],
,,,2,3,2,1,8,
7^4[8:1],,7,8,1,2h[4:1],,4h[4:1],
,6h[4:1],,8,2,3,4,5,
6h[2:1],,,7,7h[4:1],,8,1,
,78,,7h[8:1],6-1[16:1],6,,,
1,,28,46,,2b/6b,,3b/7b,
,4b/8b,,8,7,6,5,4,
3h[4:1],,2,2,,2b/3b,,4b/5b,
,6b/7b,,8,7,6,5,4,
23,,2,2h[4:1],,4h[4:1],,6h[4:1],
,8h[4:1],,1,3,5,1-4[16:1]/7-4[16:1],17,
,,,5,4,,,6h[8:7],
7,,8,,1,,2^7[2:3],,
{4}
,,,,
,,5h[4:9],,
8^3[2:3],,,,
,,,,
17,8,35,4,
46,5,{8}12,38,47,5b/6b,
1,1h[4:1],,3,3h[4:1],,5,5h[4:1],
,7,6,5,4,3,2,1,
8,8,1,2h[2:1],,3,4,
5h[2:1],,6,7,7h[2:1],,8,8^3[1:1],
{1}8,
,
E

Re:MASTER

(150.0){1}4^1[4:3],
{4},8,7,6,
{8}5h[4:3],,,8,,,4h[4:3],,
{8},1,,,5,,4/6,,
{8}4h[4:3],,,2,,,5h[4:3],,
{8},7,,,4,,3/5,,
{8}5h[4:3],,,6,,,4,4qq6[8:5],{1},
{8}8V64[4:1],,,1,1q5[4:1],,,7,
{8}7^4[4:1],,,3,2,1,8,8-3[2:1],
{8},4,4-7[2:1],,,,,,
{8},,,1,1h[4:1],,2,2h[4:1],
{8},3,3^6[4:1],,,,,7,
{4}7h[2:1],1,2h[2:1],8,
{4}5h[2:1],6,4h[2:1],3,
{8}5,,3/6,,4,5,3/6,,
{8}1V35[4:1],,,8,8p4[4:1],,,2,
{8}2^5[4:1],,,1,8,7,6,6-1[2:1],
{8},2,2-5[2:1],,,,,,
{8},,,8,8h[4:1],,7,7h[4:1],
{8},6,6^3[4:1],,,,,1,
{8}1h[4:1],,2,2h[4:1],,3,,4,
{8}5h[8:3],,,6,7h[8:3],,,8,
{4}1/7,2/6,3/5,4<8[4:1]*>8[4:1],
{4},,5-1[16:1],7b,
{8}8h[4:1],,1,1h[4:3],,8,,4,
{8},8,,2,1,8,3/7,2/6,
{8}1h[4:1],,8,8h[4:3],,1,,5,
{8},1,,7,8,1,2/6,3/7,
{4}4-8[4:1],8-5[4:1],5-2[4:1],2-6[4:1],
{8}8,,8,7,6,5,4,3,
{8}2^7[8:1],,6,5,4^7[8:1],,1,1w5[8:1],
{16},,1,,,,3,,5-1[16:1],4,5,,5b/7,,,,
{8}2h[4:1],,8,8h[4:3],,7,,4,
{8},7,,7,8,1,2/6,3/7,
{8}8h[4:1],,1,1h[4:3],,2,,5,
{8},2,,2,1,8,3/7,2/6,
{4}5>1[4:1],1<5[4:1],5>1[4:1],1p8[4:1],
{8}4,,4,3,2,1,8,7,
{2}4v1[8:1]/6v1[8:1],3v8[8:1]/5v8[8:1],
{4}6h[4:3]/5-3[8:1],5-2[8:1],5-1[8:1],5<3[2:3],
{8}5,,5,5,,5,5,,
{8}5,5,,5,5,,1/6,,
{8}6/1q4[4:5],,6,6,,6,6,,
{8}6,6,,6,6,,5/7,,
{8}7/5qq2[4:5],,7,7,,7,7,,
{8}7,7,,7,7,,1/8,,
{8}8/1pp4[8:7],,8,8,,7,7,,
{8}6,6,,5,4/5-1[16:1],,7b,,
{8}7-4[8:1],,1,1h[4:3],,3,,5,
{8},3,,7,5,7,2,4,
{8}2-5[8:1],,8,8h[4:3],,6,,4,
{8},6,,4,7,4,5,2,
{4}5-1[4:1],1-6[4:1],6-3[4:1],3-7[4:1],
{8}1,,1,1,5,2,6,3,
{8}7^2[8:1],,3,4,5^2[8:1],,6,6,
{16}5,,5,,4,,4,,5-1[16:1],4,5,,7b,,,,
{8}2h[4:1],,8,8h[4:1],,5qq3[8:1],,5pp7[8:1],
{8},5,,2,5,1,7,4,
{8}8h[4:1],,1,1h[4:1],,4pp6[8:1],,4qq2[8:1],
{8},4,,7,1,5,2,8,
{4}4<8[4:1],8>4[4:1],4<8[4:1],8q1[4:1],
{8}5,,5,6,7,8,1,2,
{2}3V15[8:1]/7V15[8:1],2V84[8:1]/6V84[8:1],
{4}6/5-3[8:1],6/5-2[8:1],6/5-1[8:1],6/5<3[2:3],
{8}5,,5,5,,4,4,,
{8}5,5,,4,4,,2/6,,
{8}5/1s5[4:5],,5,5,,6,6,,
{8}7,7,,8,8,,3/6,,
{8}7,3,2/4,,2,6,5/7,,
{8}6,2,1/3,,3,7,6/8,,
{8}4/6,7,8,3/5,2,1,3/7,8,
{8}1,2/6,1,8,7/8,1/6,2/5,3/4,
{8}3,4,5,6h[4:1],,7,8,1h[4:1],
{8},2,3,4h[4:1],,5,6pp2[1:1]*qq2[1:1],7,{1},,
E

名前:
コメント:

タグ:

+ タグ編集
  • タグ:

このサイトはreCAPTCHAによって保護されており、Googleの プライバシーポリシー利用規約 が適用されます。

最終更新:2022年07月10日 14:31