ロミオとシンデレラ

BPM EASY BASIC ADVANCED EXPERT MASTER Re:MASTER
170 2 5 7+ 10 11+ 13

EASY


BASIC


ADVANCED


EXPERT

(170){1},,,,,
8-3[4:3],
2-7[4:3],
5-8[4:3],
3b,

{8}
5-1[8:1],,,,6,,3,,
18,,45,,3,6,3,,
3h[4:1],,6,3h[4:1],,6,3h[4:1],,
1,,4,,23,,4-1[4:3]/5-8[4:3],,
,,,,,,,,
7,2,7-3[4:1],,,,,,
8,3,4,,45,,1,6,
5,8,1,5,4^1[8:1],,,,

{2}
8,6,
4h[2:1],,
1,3,
6^3[2:1],,
{4}
2,56,3,45,
7,34,6,4^1[4:1]/8^5[4:1],
,,4h[4:1],,
5^2[8:1],,,,

{8}
2-7[8:1],,,3-6[8:1],,,,,
7-2[8:1],,,6-3[8:1],,,,,
2-7[8:1],,,3-6[8:1],,,,,
7-2[8:1],,,6^1[8:1],,,,,
{2}
5h[1:1]/4,3,
4h[1:1],6,
5,4,
3-6[4:1],,

{4}
3,7h[2:1],6,2,
18,36,45,2^7[8:1]/6h[1:1],
,2^7[8:1],,,
26,26,1b/8b,1b/8b,
1^4[2:1]/8^5[2:1],,,,
4-1[2:1]/5-8[2:1],,,,
1h[8:7],,8h[8:7],,
2,1h[2:1],7,8,
1^4[4:1]/7^4[4:1],,,,
2^5[4:1]/8^5[4:1],,,,
5-2[8:1],,4-7[8:1],,
36,45,1b/8b,1b/8b,
7-2[2:1]/3-6[2:1],,,,
4h[2:1]/5h[2:1],,,4-1[2:1]/5-8[2:1],
,,,,
24,8^3[4:1]/6^3[4:1],,,
8-4[4:1],,5b,,

1,1,{8}1,1,1,38,
,18,,26,,,,,
7h[4:1]/4,,3,2h[4:1]/5,,6,7h[4:3]/4,,
1-4[4:1],,,,,,,2-7[8:1],
2,,8,1b,,,,2-7[8:1],
2,,8,1b,{4},,
7h[1:1]/1,8,1,8,
{8}1-4[8:1],,,8-5[8:1],,,,,
8h[4:1],,3,7,1h[4:1],,6,2,
8h[4:1],,3,7,1h[4:1],,6,2,
2h[4:3]/6,,6,,6,,6h[4:3],,
1-4[4:1],,,,,,,2-7[8:1],
2,,8,1b,,,,2-7[8:1],
2,,8,1b,{4},,
38,45,16,45,
1-4[8:1]/2-7[8:1],,{8},5b/8b,{4},
8^5[4:1]/5^2[4:1],,,,
1^4[4:1]/4^7[4:1],,,,
8^5[4:1]/5^2[4:1],,,,
{16}3,,,2,,,1,,{2}5-8[8:1],
{1},,,,
E

MASTER

(170){1},{8}
56,,,5,2h[4:1],,,,
34,,,4,7h[4:1],,,,
56,,,5,2-7[2:1],,,,
,,,,,,,,
34,,,4,7h[4:1],,,,
56,,,5,2h[4:1],,,,
34,,,4,7h[4:1],,,,
4b/5b,,,,,,,,

6,6,2,6,1,2,3,2,
8,7,6,1,8,7,7,,
3,3,7,3,8,7,6,7,
1,2,3,8,1,2,2,,
8,8,3,8,1,2,7,6,
1,8,7,1,2,3,34,,
1,1,6,1,8,7,2,3,
8,1,2,8,{16}78,,,23,,,{8}56,

,3,34,,6,56,,3,
3h[4:1],,4,4h[4:1],,5,5h[4:1],,
6,6,56,,3,34,,6,
6h[4:1],,5,5h[4:1],,4,4h[4:1],,
,3,6,5h[8:3],4-7[4:1],,,,
,6,3,4h[8:3],5-2[4:1],,,,
8^3[4:1],,,4,4h[1:1],,,,
,,,,,,,,

{16}
,,1,2,3,,,,8,7,6,,,,8,1,
2,,,,1,8,7,,,,8,1,2,,,,
,,8,7,6,,,,1,2,3,,,,1,8,
7,,,,8,1,2,,,,1,8,7,,,,
,,2,,8,,3,2,1h[2:1],,,,,,,,
,,7,,1,,6,7,{2}8-4[4:1],
1-5[4:1],7^2[2:1],
,,

{8}
3/8h[8:3],,1,2h[8:3],,1,8,7,
6/1h[8:3],,8,7h[8:3],,8,1,2,
3/6h[8:3],,2,3h[8:3],,5,6,7,
4/8b,3,2,1b,,7,,2,
3h[4:1],,2,3h[8:5],,1,8,7,
6h[4:1],7,7,6h[8:5],,8,1,2,
3h[4:1],,2,3h[4:1],,5,4,23,
,56,,67,,34,,3,
38,,14,25,,14,38,,
16,,58,47,,58,16,,
37,,26,15,,48,15,6,
57,4,3,24,,3,,3,
4h[4:3],,1,1,,8,7,6,
5h[4:3],,8,8,,1,2,3,
,{16}5,4,{8}3,,4,6,7,1,
,8,8h[2:1],,,,,,
{16}
8,,1,2,3,,4,,8,7,6,5,{8}4b,,

46,5,46,7,46,5,4,35,
4,5,6,57,,68,,57,
1h[4:1],,7,8h[4:1],,2,1,8-3[4:1],
,,8,7-4[4:1],,,,6,
6,,3,3,,{16}5,4,{8}5,4,
3^6[4:1],,,,,34,,56,
3,4,5,34,,{16}6,5,{8}4,3,
24,,3,4b/6b,,2b/5b,,4,
35,4,35,2,35,4,5,46,
5,4,3,24,,13,,24,
8h[4:1],,2,1h[4:1],,7,8,1-6[4:1],
,,1,2-5[4:1],,,,3,
3,,6,6,,{16}4,5,{8}4,5,
6^3[4:1],,,,,56,,34,
6,5,4,56,,{16}3,4,{8}5,6,
57,,6,25,,47,,25,
4h[1:2],,8,8,,7,8,1,
{2}8^5[8:1],8^3[8:1],
8-4[2:1],,
{16}15,,2,6,,3,7,,48,,7,3,,6,2,,
{1}5,,,,
E

名前:
コメント:

タグ:

+ タグ編集
  • タグ:

このサイトはreCAPTCHAによって保護されており、Googleの プライバシーポリシー利用規約 が適用されます。

最終更新:2021年04月24日 16:17