源平大戦絵巻テーマソング

BPM EASY BASIC ADVANCED EXPERT MASTER Re:MASTER
190 2 5 7 9 10 14

EASY


BASIC


ADVANCED


EXPERT


MASTER

(190){4}
,,,,
,,,7-2[8:1],
,1-4[8:1],,3-6[4:3],
,,,1-6[8:1],
,6-3[8:1],,1-4[4:3],
,,,,
7h[2:3],,,1-5[2:1],
,,,7-2[2:1]/6-3[2:1],
,,,5-2[4:1]/6-1[4:1],
,,,,
{8}
5,6,7,8,1,2,3,4,
{16}
5,4,3,2,1,8,7,6,5,4,3,2,1,8,7,6,

{4}
5,3h[4:1],2h[4:1],1h[4:5],
8-3[8:1],,4-7[8:1],,
,8h[4:1],7h[4:1],6-3[8:1],
2-7[8:1],1-4[8:1],,2b/7b,
6h[2:1],4,3h[2:1],1,
8h[2:1],6,5h[2:1],7,
3h[4:1],2h[4:1],8h[4:1],6h[4:1],
{8}5,4,3,2,3,4,5,6,

8,8h[4:1],,1,2,1,,8,
7,6,7,8,1-4[4:1],1,,,
8,8h[4:1],,7,6,7,,3,
4,5,4,3-6[4:1],3,,,,
,5,6,5,5h[4:1],,,25,
,78,,1,2,3,2,,
8,,7,6,7,,1,2h[4:1],
,3,4,5,4,,7,7,
1,1h[4:1],,8,7,8,,1,
2,3,2,1,8-5[4:1],8,,,
1,1h[4:1],,2,3,2,,6,
5,4,5,6-3[4:1],6,,,,
,4,3,4,4h[4:1],,,47,
,12,,8,7,6,7,,
1,1,2,3,2b,,8,7h[4:1],
,6,5,4,5,,2b,,
5,6,7,8,1,2,3,4,
{16}
5,4,3,2,1,8,7,6,5,4,3,2,1,8,7,6,

{2}
5-2[8:1],4-7[8:1],
6-1[8:1],3-8[8:1],
1-6[8:1],8-3[8:1],
2-5[8:1],7-4[8:1],
{4}
5-1[8:1],3-6[8:1],4-8[8:1],7-2[8:1],
1-4[8:1],7-2[8:1],{2}8-5[8:1],
1-6[8:1]/2-5[8:1],8-3[8:1]/7-4[8:1],
1^6[8:1]/2^5[8:1],8^3[8:1]/7^4[8:1],
{4}
8h[4:1]/2,6,2h[4:1]/4,8,
6h[4:1]/8,4,3h[4:1]/1b,5b,
5h[4:1]/7,3,4h[4:1]/2,6,
8h[4:1]/2,6,1h[4:1]/7b,3b,
{8}
7h[4:1],5,6b,,2h[4:1],4,3b,,
{2}
7-2[8:1],1-4[8:1],
{1}
4-1[2:1]/5-8[2:1],
1^4[2:1]/8^5[2:1],
{8}
,3,4,3,8,7,6,5,
1,2,5,6,3,4,2b/3b,,
,6,5,6,1,2,3,4,
8,7,4,3,6,5,6b/7b,,
,5,6,7,3,4,2,7,
1,8,7,6,7,8,1b/8b,,
,4,3,2,6,5,7,2,
8,1,2,3,2,1,1b/8b,,
1,5,3,7,8,4,6,2,
1,8,7,8,1,2,1b,6,
5,4,7,6,5,1,2,1,
3,4,5,6,5,4,3b,4,
2,3,4,1,2,3,8,7,
6,7,1,2,3,2,3b,2,
8,4,6,2,3,4,5,8,
{16}
1,2,3,4,5,6,7,8,1,2,3,4,5-1[1:2],6,7,8,
{1},,,,,,,,
E

Re:MASTER

(190)
{8}5,6,7,8,1,2,3,4,{16}5,4,3,2,1,8,7,6,5,4,3,2,1,8,7,6,
{4}5V31[4:1],1-7[8:1],6,6,8,3h[4:1]/8V63[4:1],,,2-5[8:1]/7h[4:2],,6-3[8:1],,
7q6[4:1],,,3V58[8:4],3h[4:2],,,2-4[8:1]/7h[4:2],,6qq3[4:2],8,8,8,
{8}3,3,3,3,3h[8:5],4,4h[8:3],,{4},3p7[8:1]/4q8[8:1],34,
{8}2b,1,3,8,4,7,5,6,{16}3,4,3,4,2,5,2,5,1,6,1,6,8,7,8,7,
{8}2h[4:1],1,8,,6h[4:1]/1,8,{4}7-3[8:1],7/6-1[8:1],6/4z8[8:1],4,7b,
{8}3h[4:1],4,5,,7h[4:1]/4,5,{4}6-2[8:1],6/7-4[8:1],7/1s5[8:1],1,8b,
{8}6h[4:1],5,4,,2h[4:1]/5,4,{4}3-7[8:1],3/2-5[8:1],2/8V64[8:1],{16}8,,3b,2b,{8}1b,,
{8}7h[4:1],2,3,,4h[4:1]/8,1,2<4[4:3],,4b,3b,2b,1b,8b,7b,6b,,

{8}1q5[8:1]/8,2,31,,6q2[8:1],7,{4}6/8-3[8:1],8-5[8:1],8w4[8:1],8,1b,
{8}7p3[8:1]/8,6,57,,2p6[8:1],1,{4}2/8-3[8:1],8-5[8:1],8z4[4:1],,,
{8}3-8[8:1]/1,8,7,6,{4}5h[4:5],6-3[8:1],6,6-1[8:1],6,3,
{4}2-5[8:1]/6-1[8:1],2<6[8:1]/6>2[8:1],26,
{8},37,,2,{4}1-5[8:1]/8-6[8:1],8-4[8:1]/1-3[8:1],18,
{8}5/6q2[8:1],7,86,,3q7[8:1],4,{4}3/5-2[8:1],5/8-4[8:1],8w4[8:1],8,1b,
{8}1/8p4[8:1],7,68,,3p7[8:1],2,{4}1-4[8:1]/3,1/6-2[8:1],5>1[4:1]*<1[4:1]/6,,,
{8}3-8[8:1]/1,8,7,6,{4}5,6-3[8:1]*V42[8:1],6,6-1[8:1]*V82[8:1],6,6,
7-4[8:1]/3-8[8:1],7>3[8:1]/3<7[8:1],73,{8},26,,3,{4}4-8[8:1]/5-1[8:1],,
{4}1-4[8:1]/6^4[8:1],16,8V26[8:1]*-5[8:1],,2V48[4:1],8-6[8:1],,

1b,3-8[8:1],3/6-1[8:1],6/2-5[8:1],2/8-5[8:1],
8/4-2[8:1]*-1[8:1],4-6[8:1]*-7[8:1],4w8[8:1]*-8[8:1],,
6b-1[8:1]/2b,6/3-8[8:1],3/7-4[8:1],7/1-4[8:1],
1/5-7[8:1]*-8[8:1],5-3[8:1]*-2[8:1],5w1[8:1]*-1[8:1],,
3b-6[8:1]/7b,3/7-2[8:1],3-6[8:1]/7,3/1-6[8:1],5^2[8:1]/1,
{8}6,7-3[8:1],,2,1-5[8:1],,1,,8b>4[8:4],1b^4[8:3],2b^4[8:2],3b,
7b,8b>4[8:4],1b^4[8:3],2b^4[8:2],6b,7b,8b,1b,2b/7b,,45,,

{16}6,,6,5,7,,48,,3,,3,4,2,,51,,6,,6,5,{8}7-4[8:1],48,3-8[8:1]/7,2,35,6,
{16}28,,3,4,2,,51,,6,,6,5,7,,48,,3,,3,4,{8}2-5[8:1],51,6-1[8:1]/2,7,64,3,
{16}17,,6,5,7,,48,,3,,3,4,{8}2^5[8:1],1,8,7^2[8:1],6,5,4^7[8:1],3,2,1,8,7,
1,2,5-1[8:1],6,75,8,18,2,35,{16}7,8,1,2,3,4,51,,,,
6,,78,,2,1,{8}2,3,46,7-3[8:1],8,7/1-5[8:1],2,15,6,1v4[8:1]/7v4[8:1],,1b/7b,,
{16}3,,21,,7,8,{8}7,6,53,2-6[8:1],1,2/8-4[8:1],7,84,3,8v5[8:1]/2v5[8:1],,8b/2b,,
{16}7,,65,,4,3,2,,17,,17,,2-6[8:1],3,4,,{8}2/8^5[8:1],7,8/4^1[8:1],3,4,{16}7b,6b,5b,,,,
{16}2,,34,,5,6,7,,82,,82,,7-3[8:1],6,5,,{8}7/1-4[8:1],2,1/5-8[8:1],6,1v4[8:1]*v6[8:1]/5,2,1,,

37,46,{16}3,5,3,5,1,,7,,6-2[8:1],5,6,,{8}3-8[8:1],3,4,4,{32}5v2[8:1]*v8[8:1],6,7,8,1,2,3,4,{8}5b,,
1,28,{16}6,4,6,4,8,,8,,3-7[8:1],4,3,,{8}6-1[8:1],6,5,5,{32}4v7[8:1]*v1[8:1],3,2,1,8,7,6,5,{8}4b,,
{8}8-4[8:1],7,8/2-6[8:1],3,2/5-8[8:1],4,5/3-6[8:1],2,
3/8^5[8:1],7,8/1^4[8:1],2,5-2[8:1]*-8[8:1]/1,6,5,,
{16}2b,8,4,6,2b,8,1,7,8b,6,2,7,3b,1,4,6,{12}6b,5,7,3,4,2,{32}5,6,7,8,1,2,3,4,
{4}5b-1[8:15],{1}5h[1:4],,,,4b,,,,E

  • 白譜面追加しました。修正等ありましたらよろしくお願いします。 -- けもがみ (2022-07-31 00:28:57)
名前:
コメント:

タグ:

+ タグ編集
  • タグ:

このサイトはreCAPTCHAによって保護されており、Googleの プライバシーポリシー利用規約 が適用されます。

最終更新:2022年07月31日 00:28