チルノのパーフェクトさんすう教室

BPM EASY BASIC ADVANCED EXPERT MASTER
175 2 3 6 10 12+

EXPERT MASTER Re:MASTER
譜面制作者 はっぴー 某S氏 -

EASY


BASIC

(175.0){1}4,
{1}5,
{2}4,5,
{1}4,
{1}3,
{1}2,
{2}1,8,
{1}1/8,
{1}1-4[4:3],,
{1}8-5[4:3],,
{1}1,
{1}8,
{2}1,8,
{1}1b,
{1}1h[8:3],
{1}8h[8:3],
{1}1h[8:3],
{2}8,7,
{1}6h[8:3],
{1}5h[8:3],
{1}6h[8:3],
{2}5,4,
{1}3h[8:3],
{1}2h[8:3],
{1}3h[8:3],
{2}2,1,
{1}8h[8:3],
{1}7h[8:3],
{1}8,
{1}1,
{1}8,
{1}7,
{1}8-5[4:3],,
{1}1,
{1}2,
{1}1-4[4:3],,
{1}6,
{1}7,
{1}8,
{1}1,
{2}8,1,
{2}1/8,1/8,
{1}2h[2:1],
{1}3h[2:1],
{1}4,
{1}4,
{1}5,
{1}5,
{2}6,6,
{2}7,7,
{2}8,1,
{1}1h[2:1]/8h[2:1],
{2}1,2,
{2}3,4,
{2}5,6,
{2}7,8,
{1}1h[2:1],
{1}8h[2:1],
{2}1,2,
{4}1,1,1,,
{2}8,7,
{2}6,5,
{2}4,3,
{2}2,1,
{1}8h[2:1],
{1}1h[2:1],
{2}8,1,
{1}1b/8b,
{1}8h[8:3],
{1}1h[8:3],
{1}8h[8:3],
{2}1,2,
{1}3h[8:3],
{1}4h[8:3],
{1}3h[8:3],
{2}4,5,
{1}6h[8:3],
{1}7h[8:3],
{1}6h[8:3],
{2}7,8,
{1}1h[8:3],
{1}2h[8:3],
{2}1,8,
{4}1/8,,,1b,
E

ADVANCED

(175.0){4}2,2,,,
{4}7,7,,,
{2}1/2,7/8,
{4}1,8,,,
{4}4,4,,,
{4}5,5,,,
{2}3/4,5/6,
{4}3,6,,,
{2}6,6,
{1}7-3[4:1],
{2}2,2,
{1}2-6[4:1],
{2}1h[2:1],3,
{2}8h[2:1],6,
{2}7,2,
{1}5-8[4:1],
{1}2h[8:3],
{1}7h[8:3],
{1}3h[8:3],
{1}6h[8:3],
{8}2,,,2,,,,,
{8}1,,,1,,,,,
{8}8,,,8,,,,,
{8}7,,,7,,,,,
{8}1,,,8,,,,,
{8}8,,,1,,,,,
{8}2,,,1,,,,,
{4}7h[2:1],,,8,
{1}1-6[4:1],
{1}8-3[4:1],
{1}2h[4:3],
{4}6,7,8,8b,
{2}1,2,
{2}6,5,
{2}3,4,
{2}8,7,
{1}2h[2:1],
{1}7h[2:1],
{2}8,7,
{4}1,8,1,,
{4}6,6,5,,
{4}3,3,4,,
{4}3,4,5,6,
{2}7h[2:1],8,
{1}1h[2:1]/7h[577:287],
{4}1,1,1,1/8,
{2}8,7,
{1}6-3[4:1]/7-2[4:1],
{1}4,
{1}4,
{1}5,
{1}5,
{2}3,2,
{2}6,7,
{2}1,8,
{1}1h[2:1]/8h[2:1],
{4}1,1,2,2,
{4}3,4,5/6,,
{4}8,8,7,7,
{4}6,5,3b/4b,,
{2}2h[2:1],1,
{2}7h[2:1],8,
{2}1h[2:1],8h[2:1],
{4}1,2,3b,,
{4}2,2,7,7,
{4}2,1,7/8,,
{4}7,7,2,2,
{4}7,8,1/2,,
{1}1-4[4:1],
{1}8-5[4:1],
{1}1-4[4:1]/8-5[4:1],,
{8}2h[8:3],,,,,2,,,
{8}1h[8:3],,,,,1,,,
{8}8h[8:3],,,,,8,,,
{8}7h[8:3],,,,,7,,,
{8}3h[8:3],,,,,3,,,
{8}4h[8:3],,,,,4,,,
{8}5h[8:3],,,,,5,,,
{8}6h[8:3],,,,,6,,,
{1}7/2-5[4:1],
{1}2/7-4[4:1],
{1}7/2-5[4:1],
{1}2/7-4[4:1],
{1}2-5[4:1],
{1}7-2[4:1],
{1}1-6[4:1],
{4}7/8,1/8,1/2,1b,
E

EXPERT

(175){1},,,,,,,,{2}
2/5h[1:1],1,
8^5[4:1],,
4h[1:1]/7,8,
1^4[4:1],,
16,83,
1-4[8:1],8-5[8:1],
2h[2:1],7,
45,16,

{4}
82,4,71,5,
82,4,71,5,
82,4,71,5,
82,4,82,4,

7/1h[4:1],5,2/8h[4:1],4,
7/1h[4:1],5,2/8h[4:1],4,
7/1h[4:1],5,2/8h[4:1],4,
7/1h[4:1],5,7/1h[4:1],5,

8/2h[4:1],4,1/7h[4:1],5,
8/2h[4:1],4,1/7h[4:1],5,
8/2h[4:1],4,1/7h[4:1],5,
8/2h[4:1],4,8/2h[4:1],4,

71,5,82,4,
71,5,82,4,
{16}47,,,4,,,25,,,5,,,{4}36,
5/4-1[8:1],,,1b,


{2}
7h[2:1],5,
2h[2:1],4,
1h[4:3],8h[4:1],
{4}
82,17,82,,

{2}
7h[4:3],5h[4:3],
3h[4:3],1h[4:1],
2-5[8:1],7-4[8:1],
{4}
61,82,61,82,

{2}
1h[4:3],4h[4:3],
5h[4:3],8h[4:1],
2h[4:3],7h[4:1],
{4}
68,13,68,,

8,1,7h[4:1],2,
61,38,61,,
8^5[8:1],,1^4[8:1],,
12,46,12,46,

{2}
2^7[4:1],2,
4^1[4:1],4,
6^3[4:1],6,
8^5[4:1],8,
25,47,
{4}
34,56,24,57,
{2}
5-2[8:1],4-7[8:1],
1^4[4:1]/8^5[4:1],,

5h[1:1]/2h[4:1],1h[4:1],
8^5[4:1],,
4h[1:1]/7h[4:1],8h[4:1],
1^4[4:1],,
1h[4:1]/6h[4:1],8h[4:1]/3h[4:1],
1-4[8:1],8-5[8:1],
2h[4:3],7h[4:1],
{4}
72,45,83,,

{2}
5h[1:1]/2h[4:1],1h[4:1],
8^5[4:1],,
4h[1:1]/7h[4:1],8h[4:1],
1^4[4:1],,
1h[4:1]/6h[4:1],8h[4:1]/3h[4:1],
1-4[8:1],8-5[8:1],
3h[4:3],6h[4:1],
{4}
72,34,56,8b/3b,

2/8h[4:1],4,7/1h[4:1],5,
2/8h[4:1],4,7/1h[4:1],5,
2/8h[4:1],4,7/1h[4:1],5,
2/8h[4:1],4,2/8h[4:1],4,

1/7h[4:1],5,8/2h[4:1],4,
1/7h[4:1],5,8/2h[4:1],4,
1/7h[4:1],5,8/2h[4:1],4,
1/7h[4:1],5,1/7h[4:1],5,

2/8h[4:1],4,7/1h[4:1],5,
2/8h[4:1],4,7/1h[4:1],5,
8/2h[4:1],4,1/7h[4:1],5,
8/2h[4:1],4,8/2h[4:1],4,

7/1h[4:1],5,2/8h[4:1],4,
7/1h[4:1],5,2/8h[4:1],4,
{16}
47,,,4,,,25,,,5,,,{4}36,
5/4-1[8:1],,,1b,
{1},,,
E

MASTER

(175){8}
7,8,1,2,,1,8,7,
6,5,4,3,,4,5,6,
37,8,1,2,15,4,3,2,
37,4,5,6,,1b,1b,,
48,5,6,7,,1,2,3,
15,4,3,2,,7,8,1,
26,3,4,3,48,5,6,5,
48,37,26,15,,5,4,3,

2-5[2:1],,,,,,,,
,4,3,2,1,4,5,6,
7-4[2:1],,,,,,,,
,{16}8,7,6,5,4,3,{8}2,,1,8,
27,,,4,5,,36,,
2,{16}1,2,{8}1,2,7,8,7,8,
6-2[8:1],6,,,3-7[8:1],3,,,
45,4-1[8:1]/5-8[8:1],,,,2b,2b,,

1h[8:3],,2,8h[4:1],,7,,,
8h[8:3],,7,1h[4:1],,2,,,
1h[8:3],,2,8h[4:1],,7,,,
1,8,2,8h[4:1],,7,1,7,
1h[8:3],,2,8h[4:1],,7,,,
8h[8:3],,7,1h[4:1],,2,,,
1h[8:3],,2,8h[4:1],,7,,,
{16}2,1,8,7,6,5,4,3,{8}2,1,8,7,
2h[8:3],,3,7h[4:1],,6,,,
7h[8:3],,6,2h[4:1],,3,,,
2h[8:3],,3,7h[4:1],,6,,,
2,7,3,7h[4:1],,6,3,6,
4h[8:3],,3,5h[4:1],,6,,,
5h[8:3],,6,4h[4:1],,3,,,
{16}6,6,,4,4,,2,2,,8,8,,6,,4,,
8,,3,,6,,1,8,,,,,1b,,,,

{8}
5,6,2,3,8h[4:1],,7,,
8,7,3,4,5h[4:1],,6,,
3,4,5,6,1h[4:1],,3h[4:1],,
5h[8:1],6,8h[8:1],6,7h[4:1],,5,,
4,6,2,8,3-7[8:1],,,,
8,2,6,4,7-3[8:1],,,,
1,4,3,1,2,4,1,3,
1-5[4:1],,,2,2h[4:1],,,,
5,5,4,4,3h[4:1],1b,1b,,
4,4,5,5,6h[4:1],8b,8b,,
7,7,6,6,{4}5h[4:1],4,
26,37,15,,
34,,17,,
17,17,{8}17,17,17,,
{2}4h[4:1],6h[4:1],
{16}1,2,3,4,5,6,7,8,1,2,3,4,5,6,7,8,

{1}
1,
3,
5,
7,
{4}
5,4,3,2,
4h[4:1],5h[4:1],6h[4:1],7h[4:1],
2^7[4:1],7^4[4:1],4^1[4:1],1^6[4:1],
6-1[4:1],1-4[4:1],,,

{8}
2,,3,,4,,5,,
6,78,12,34,56,7,6,5,
4,,3,,2,,1,,
8,{16}7,6,5,4,3,2,{8}1,,8,,
7h[4:1],,1,,2h[4:1],,8,,
1,,8,,2,7,1b/8b,,
8-5[8:1],8-4[2:1],8-3[8:1],,,,,,
26,,37,,26,,,,

7,,6,,5,,4,,
3,12,78,56,34,2,3,4,
5,,6,,7,,8,,
1,{16}2,3,4,5,6,7,{8}8,,1-6[8:1],,
4-7[8:1],,5-2[8:1],,8-3[8:1],,,,
2-5[8:1],1-6[8:1],,,8-3[8:1],7-4[8:1],,,
1^6[8:1],,,,8^3[8:1],,,,
{1},

{8}
1h[8:3],,2,8h[4:1],,7,1h[4:1],,
4h[8:3],,5,3h[4:1],,2,4h[4:1],,
6h[8:3],,7,5h[4:1],,4,6h[4:1],,
8b,,,8b,,,,,
4h[8:3],,3,5h[4:1],,6,4h[4:1],,
1h[8:3],,8,2h[4:1],,3,2h[4:1],,
7h[8:3],,6,8h[4:1],,1,7h[4:1],,
5b,,,5b,,,,,
1h[4:1]/2b,,8h[8:3],7b,,1,18,,
8h[4:1]/7b,,1h[8:3],2b,,8,18,,
1h[4:1]/2b,,8h[8:3],7b,,1,18,,
1,8,2,8h[4:1],,7,1,7,
1h[8:3],2,2,8h[8:3],7,7,1h[4:1],2,
5h[8:3],6,6,4h[8:3],3,3,5h[4:1],6,
{16}4,4,,2,2,,8,8,,6,6,,1,,3,,
2,,8,,4,,7,5-1[8:1],,,,,,,,,
{1},,
E

名前:
コメント:

タグ:

+ タグ編集
  • タグ:

このサイトはreCAPTCHAによって保護されており、Googleの プライバシーポリシー利用規約 が適用されます。

最終更新:2022年08月10日 17:13