記憶、記録

アーティスト LOPIT(SEGA)

BPM EASY BASIC ADVANCED EXPERT MASTER Re:MASTER
185 3 4 8 10 13 14

EXPERT MASTER Re:MASTER
譜面制作者 はっぴー ニャイン シチミヘルツ


EASY


BASIC


ADVANCED


EXPERT


MASTER

(185){1},{4}
1,1,1b,3-8[8:1],
{8}
7,6,45,,7,8,12,,
8,7,56,,3,4,56,,
7,6,45,,8,1,23,4h[4:1],
,5,67,1,78,6,18,2,
8,7,56,4,3,2,18,6,
6,4,34,5,7,1,23,1,
8,7,56,4,3,2,18,7h[4:1],
,6,1b/8b,2,1b/8b,7,1b/8b,2,

3-8[8:1],,1,1-5[8:1],,8,6,4,
2^5[8:1],,8,1^6[8:1],,3,2,1,
8-4[8:1],,7,7-3[8:1],,4,5,6h[4:1],
,7,7,8,8,1,1,2,
3-7[8:1],,1,1-5[8:1],,6,4,2,
1-5[8:1],,7,7-3[8:1],,4,6,8,
1-5[8:1],,4,4-8[8:1],,7,1,3h[4:1],
,2,2,1,1,8,8,7,
6-2[8:1],6,2,3,4-8[8:1],4,8,7,
5-1[8:1],5,1,2,3-7[8:1],3,7,6,
5-8[8:1],5,8,2,1-5[8:1],1,8,8-3[8:1],
,1-6[8:1],,7-4[8:1],,2-5[8:1],,8b,

1,1,34,,18,18,,7,
7,5,5,3h[4:1],,4,4,6,
6,8h[4:1],,5,4,3,2,2h[4:1],
,3b,4b,5b,6b,7b,8b,,
2-6[8:1],,3,3-7[8:1],,8,8-4[8:1],,
6-2[8:1],,5,5-1[8:1],,2,2-6[8:1],,
8-4[8:1],,7,7-3[8:1],,6,6-2[8:1],,
1-5[8:1],,2,2-6[8:1],,3,3-7[8:1],,
1-5[8:1],,8b,8-4[8:1],,7b,7-4[8:1],,
1-5[8:1],,2b,2-6[8:1],,3b,3-7[8:1],,
8-4[8:1],,6b,6-1[8:1],,1,{4}2b,
3b/4b,5b/6b,7b/8b,1^6[2:1]/2^5[2:1],
{1}
,
,
{8}
7h[8:3],,,5h[8:3],,,3h[8:3],,,1h[8:3],,,8b,,8b,,
2h[8:3],,,4h[8:3],,,6h[8:3],,,8h[8:3],,,1b,,1b,,
78,78,67,67,56,56,45,45,
1b/2b,3b/4b,5b/6b,7b/8b,1b/2b,,7^4[8:1]/8b,,
1b,2-6[8:1],,1,8-4[8:1],,1,1-5[8:1],
,2,2-6[8:1],,8,8b,5/6-1[8:1],,
2b,2-6[8:1],,1,1-5[8:1],,8,8-4[8:1],
,3,3-7[8:1],,8b,8b,,,
1,2,3,4,5,5h[4:1],,3,
3,2,1,8,7,7h[4:1],,8,
8,2,2,4,4,7,5,6,
4,5,3,4,2,3,4-8[8:1],,

8b,1-5[8:1],,7,7-3[8:1],,5,5-1[8:1],
,3,3-7[8:1],,1,1b,7-4[8:1]/8,,
1b,1-6[8:1],,3,3-7[8:1],,5,5-2[8:1],
,1,1-5[8:1],,8b,8b,,,
1,2,3,4,5,5h[4:1],,3,
3,2,1,8,7,7h[4:1],,8,
8,2,2,4,4,7,5,6,
4,5,3,4,2,3,4-8[8:1],,
8b,1-5[8:1],,7b,7-3[8:1],,5b,5-1[8:1],
,3b,3-7[8:1],,1b,,1-4[2:1]/8-5[2:1],,
{2},,
,{16}8,7,6,5,4,3,2,1,
{8}
8-4[8:1],,1b,1h[4:1],,2b,2-6[8:1],,
3b,3h[4:1],,,1b/2b,,7b/8b,,
6-1[8:1]/8,,2b,,2/4-8[8:1],,7b,,
56,,34,,5b/6b,6b/7b,7b/8b,1b/8b,

7,6,45,6,7,8,12,3,
8,7,56,4,3,4,56,7,
7,6,45,6,8,1,23,4h[4:1],
,5,67,1,78,6,18,2,
8,7,56,4,3,2,18,6,
6,4,34,5,7,1,23,1,
8,7,56,4,3,2,18,7h[4:1],
,6,1b/8b,2,1b/8b,7,1b/8b,2,
8,7,56,4,3,2,18,6,
6,4,34,5,7,1,23,1,
8,7,56,8,1,2h[4:1],,1,
78,6,45,1b/2b,,,,,
1,2,34,5,6,7,18,3,
3,5,56,4,2,8,67,8,
1,2,34,1,8,7h[4:1],,8,
12,3,45,6b/7b,7b/8b,1b/8b,1h[8:3]/2h[8:3],,
{1},,
E

Re:MASTER

(185){1},
{16}7,,,,7,,,,7,,3b/6b,2b/7b,1b/8b,,,,
{8}8,2,5,7,28,1,3,56,,2,8,6,5,8,3,25,4,8,3,5,7,4,8,78,,1,25,8,57,16,
{16}3,5,2,5,
{8}1,7,4,2,16,8,5,34,,6,57,4,3,1,6,47,5,1,6,4,2,5,1,1b/2b,,8,4b/7b,1,2b/4b,3b/8b,
{16}6,5,6,5,
{8}7b<4[8:1],,3,3h[4:1],,2,2<7[8:1],,3-8[8:1],,6,4,,1,17,,34,2,2>5[8:1],,6,6,6,6/7>2[8:1],,5,4,,8,4-8[8:1]/7,,,2>5[8:1],,6,6h[4:1],,7,7>2[8:1],,6-1[8:1],,3,5,,8,28,,56,7,7<4[8:1],,3,3,3,3/2<7[8:1],,4,5,,35,17,,,
1-5[8:1]/2,8,7,6,4,3-7[8:1],,1,8,6,5,4-8[8:1],,1,1,,18,18,45,18,45,1/8-4[8:1],,6-2[8:1],,3-7[8:1],3,1-5[8:1],1,8,8,,46,46,24,,16,38,,25,14,38,27,16,,24,13,28,17,68,,23,12,18,78,67,,3b,4b,5b,6b,7b,8b,,
{16}1/7h[8:3],,,,5,4,3<6[8:3],,,,5,,5,,,,
7h[8:3],,,,1,2,3>8[8:3],,,,1,,1,,,,
7h[8:3],,,,6,5,4>1[8:3],,,,5,,5,,5,,
5,,25,,36,,4-1[8:1]/7,,,,8,7,6,,,,
2h[8:3]/5,,,,4b,5,6>3[8:3],,,,4,,4b,,,,
2h[8:3],,,,8b,7,6<1[8:3],,,,8,,8b,,,,
2h[8:3],,,,3b,4,5-8[8:1],,,,1b,,1b,,1b,,
{8}2/5b,3,2/7b,3,1b/2,3,2/7b,3,
{1}1b>4[4:4]/5b<8[4:4],
{12},,,,,,6,5,6,3,4,3,
{1}8b<5[4:4]/4>1[4:4],
{12},,,,,,2,4,3,7,5,6,
{1}1b>4[4:4]/5<8[4:4],
{12},,,,,,7,5,6,2,4,3,
{8}45,,12,12,34,34,56,56,7b/8b,5b/6b,3b/4b,1b/2b,7b/8b,,4/5-1[8:1],,
8b,8<5[8:1],,3,3-6[8:1],,1,1>4[8:1],,1,1-5[8:1],,8,8b,7-3[8:1],,1,1>4[8:1],,6,6-3[8:1],,8,8<5[8:1],,8,8-4[8:1],,1b,1b,,,
2,8,6,4,1,1h[4:1],,2,2,4,6,2,8,7h[4:1],,8,16,2,35,8,47,6<1[8:1],1>4[8:1],6b,,,,,36,,4/5-8[8:1],,3b,2>5[8:1],,1,8-4[8:1],,7,6<1[8:1],,6,6-2[8:1],,1-4[8:1],1b,1-5[8:1]/8,,7,6<1[8:1],,5,4-8[8:1],,3,2>5[8:1],,2,2-6[8:1],,8b,8b,,,
1,2,1,7,5,3h[4:1],,2,8,6,8,1,4,2h[4:1],,1,38,7,46,1,25,3>8[8:1],8<5[8:1],3b,,,,,1-5[8:1]/8,,6,,4b/5h[4:1],,3h[8:3],2b,,1h[8:3],8b,,7h[8:3],6b,,5,3/4b,,1-4[4:1]/2b,,4b-8[4:1],,8-5[4:1],,5-1[4:1],,1>4[4:1],,4<7[8:1],,8h[16:7],,
{16}1,2,3,4,15,26,37,48,
{8}1b/5b,,34,17,,56,28,,34,1b/7h[8:3],,,
{16}1,6,2,5,3-7[8:1],4,3,4,
{2}3b,
{64}7b,68,15,24,3,,,,
{8},,,
2b-5[8:1]/1b-6[8:1],,1b/2b,,3b/4b,2b/3b,1b/2b,1b/8b,
{16}7,,6,,45,,6,,7,7,1,,13,,3,,34,,2,,1,,8,,3,3,7,,56,,4,,8,,1,,12,,8,,6,6,2,,3,,4h[4:1]/5,,,,3,,23,,8,,12,,3,,18,7,6,5,
24,,5,,34,,2,,1,1,3,,4,,5,,6,,7,,78,,1,,2,2,3,,4,,6,,7,,8,,13,,2,,8,8,7,,6,,4/5h[4:1],,,,6,,6b/7b,,1,,7b/8b,,6,,1b/8b,2,3,4,
58,,7,,46,,7,,6,6,5,,1,,2,,5,,6,,57,,8,,2,2,1,,6,6,5,,17,,28,,3,3,4,,6,,47,,,,16,,25,,14,,25,,7b/8b,,,,,,,,,,
18,,2,5,3,,7,,28,8,3,,1,,4,,56,,7,5,8,,3,,47,4,6,,8,7,8,,5,,7,,12,,45,,78,,2b/5b,,,,5b/6b,,7b,,1b/8b,,2b,,34,45,56,,78,,
{1}1b/2b,
E


  • リマスター持ってる人いますか? -- 名無しさん (2022-09-21 00:27:56)
  • 白追加しました~ -- 田中 (2022-12-30 17:57:18)
名前:
コメント:

タグ:

+ タグ編集
  • タグ:

このサイトはreCAPTCHAによって保護されており、Googleの プライバシーポリシー利用規約 が適用されます。

最終更新:2022年12月30日 17:57