犬日和。

BPM EASY BASIC ADVANCED EXPERT MASTER
138 1 4 6 9 11+

EXPERT MASTER Re:MASTER
譜面制作者 ニャイン mai-Star -

EASY

(138){4},,,{1},,,,
1,2,1,8,8,7,8,{4},{1}1-4[2:1],,5,6,5-8[2:1],,1,1b,
8h[4:3],,7h[4:3],,8,1,{4},,,{1},
1,2,1,8,8,7,8,{4},{1}1-4[2:1],,5,6,5-8[2:1],,1,1,1b,
{2}8h[4:3],,,8b,7h[4:3],,,7b,
{1}6,5,6,7,{2},{1}1/8,1/8,E


BASIC

(138){1},,{4}1,1,1,,8,8,8,,
2,,2,,2,2,2,,3,3,3,,4,,4,,5,,5,,6,6,6,,7,7,7,,,8,8b,,
{2}7h[4:1],8h[4:1],1h[4:1],2h[4:1],
{4}1,1,1,,8,8,8,,
{2}1-5[4:1],,4-8[4:1],,7,2,1/8,,

{4},2,,2,,3,3,,,8,,8,,7,7,,,8,,1,,8,,,
1/8,7/8,1b/8b,,,2,,2,,2,{8},3,
{2}3,2,2,1,1,8,8,7,6/7,8,
{8}8,,,1/8,1/8,,1b/8b,,,,

{4}
1,1,2,2,3,3,4,,5,5,6,,7,7,8,,
{2}1/8,1/8,2/7,2/7,3/6,3/6,4/5,,2/7,,
{4}8,8,7,7,6,6,6,,1,1,2,2,3,3,3,,
1/2,,1/2,,1-5[4:1],,,,7/8,,7/8,,8-4[4:1],,,,
1/8,1/8,1/8,,2/7,2/7,{1}2b/7b,E


ADVANCED

(138){4}7,,,8,1,,,,3,6,1/8,,4,5,1/8,,
1,3,5,7,1,8,4/5,,3,4,4/5,,3,6,3,6,
2,1,8,7,8,1,1/2,,1,8,7/8,,{8},4,{4}5,2b/7b,,
1,2,3,4,5,6,7,8,8,7,6,5,4,3,2,1,
2h[4:1],3,7h[4:1],6,3h[4:1],4,6h[4:1],5,
1,3/4,8,5/6,1/8,,3,6,3,4,6,5,4,5,1b/8b,,
8,7,8,1,2,1,3/6,,2,7,4,5,1,8h[2:1],1h[4:1],,
1b/2b,1b/8b,7b/8b,,

1,8,1,8,2,7-2[4:1],,,7,3-6[4:1],,,7,8,1,2,
3,4,5,6,5,4,1/8,,3,6,2/7,,{8},1,{4}1,1b/8b,,

3,4,3,3/4,6,5,6,5/6,1,2,1,1/2,8,7,8,7/8,
4h[4:1],5,8h[4:1],1,7h[4:1],6,2h[4:1],3,
2,1/2,1,1/8,7/8,,4,5,4/5,,2/7,1b/8b,
3,2,1,8,7,6,1/8,,2h[4:1],3,7h[4:1],6,4,5,1/8,,
3,6,4,5,1,8-5[4:1],,,2,7,4,5,1,8h[2:1],1h[4:1],,,
1b/2b,1b/8b,7b/8b,,
2b/7b,4b/5b,1b/8b,,
{1},E


EXPERT

(138){2}2/7,4/5,{16}3,,,7,,,1b,,{4},,
3/7,2/6,3/7,,1/5,4/8,1/5,,8,7/8,6,4/5,
{16}6,,7,,8,8,,1/8,{2},{16}8,,7,,6,6,,5/6,{4},,
4,3/4,5,5/6,1,1/2,3,3/4,{16}2,,1,,8,8,,7/8,{2},{16}8,,1,,2,2,,2/3,{8},
1,8,7b,,1/8,1/8,,1/2,,,,8,7,8,7,1,8,1,8,2,1,2,1,3,2,3,2,
1,8,7,6,5,4,3,2,1,2,3,4,5,6,7,8,1,2,1,2,8,1,8,1,7,8,7,8,6,7,6,7,
5-8[4:1],5,,,1-4[4:1],1,,,7b,,,1,{16}1h[4:1],,,2,,,3,,
2,,,,1,,1,,,,8,,7,,6,,,,1,8,1,8,1,8,1b,,,,,,,,
2,,,,3,,3,,,,4,,5,,6,,,,5,4,5,4,5,4,5b,,,,,,,,
5,,,7,,,1,,8,,7,,6,,5h[8:7],,{1},
{4}3/7,2/6,3/7,,

8,7/8,6,4/5,{16}6,,7,,8,8,,1/8,,,2b,,2b,,,,
8,,7,,6,6,,5/6,,,{4},7b/8b,1b/8b,,,{8},{4}
1,1/2,3,3/4,{16}2,,1,,8,8,,7/8,,,,,6b/7b,,,,
8,,1,,2,2,,2/3,,,{8}1,8,7,,1/8,1/8,,1/2,,,,

8,7,8,7,1,8,1,8,2,1,2,1,3,2,3,2,
1,8,7,6,5,4,3,2,1,2,3,4,5,6,7,8,
1,2,1,2,8,1,8,1,7,8,7,8,6,7,6,7,
5-8[4:1],5,,,1-4[4:1],1,,,7h[4:1],,,1,
{16}1h[16:3],,,2,,,3b,,
2h[4:1],,,,,,1,,8h[16:3],,,7,,,6b,,
2,,,,1,,1,,,,8,,7,,6,,,,1,8,1,8,1,8,1b,,,,,,,,
2,,,,3,,3,,,,4,,5,,6,,,,5,4,5,4,5,4,5b,,,,,,,,
5,,,7,,,1,,8,,7,,6,,5h[8:7],,{1},{16}
4,,,6,,,8,,7,,5,,3,,1h[8:7],,{1},{4}
3/7,2/6,3/7,,4b/8b,2b/6b,4b/8b,,
{1},E


MASTER

(138){16}
3,,,,,2,,1,8,,,,7,,,,
78,,,16,,,25,,,,3,,4,,3,,
12,,,,18,,,,78,,6,7,8,1,2,3,
45,,,,45,,,,1b/8b,,,,,,,,

3,,,5h[16:3],,,6,,,,6,,5,,4,,
3,,2,,1,8,,2^7[8:1],,,,,,,,,
6,,7,,8,1,,2,,,4,,5,,4-1[4:1],5,
,,8h[8:5],,,,,,,,,,,,,,
,,1,,2,,3,2h[32:9],,,,{32},3,{16},,45,,
6,,7,,8,1,,6^3[8:1],,,,,2,,1,,
8,,6,,4,5,,3,,,3,,2,,1,,
,,27,,45,,,,1b/8b,,,,,,,,

{8}
8,78,2,12,3,34,5,56,
2,12,3,34,8,78,5,56,
8,7,6,5,4,3,2,1,
{16}2,7,2,7,1,,8,1b,{8},,,,
8,78,8,78,3,34,3,34,
2,12,2,12,5,56,5,56,
1,8,7,6,5,4,3,2,
1,,,4,{16}5,,,36,,,1b/8b,,

3h[4:1],,,,5h[8:3],,7,,,,7h[4:1],,8,,1,,
,,1,8,1,8,1,8,1-4[8:1],,,,,,,,
1h[4:1],,,,3h[8:3],,4,,,,7h[4:1],,6,,5,,
,,5,4,5,4,5,4,5-8[8:1],,,,3,,2,,
1,,,1,,,7,,6,,5,,4,,3h[8:5],,
4,,,,4,,,,7h[4:1],,,,6,,,,
27,,,,45,,,,1b/8b,,,,,,,,

5,,,6,,,7h[2:1],,,,5,,4,,3,,
2,,1,,8,1,,7h[16:5],,,3b,,3b,,4,,
5,,6,,4,5,,7,,,8,,2,,4,1h[16:13],
,,7h[8:5],,,,,,,,,,,,,,
,,1,,2,,3,2h[32:9],,,,{32},3,{16},,45,,
6,,7,,8,1,,6^3[8:1],,,,,2b,,1,,
8,,6,,4,5,,3,,,3,,2,,1,,
,,27,,45,,,,1b/8b,,,,,,,,

6,,1,1,6,,2,,6,,3,3,6,,4,,
6,,3,3,6,,2,,6,,1,1,6,,2,,
3,,8,8,3,,7,,3,,6,6,3,,5,,
2,7,2,7,1,,8,1b,,,,,,,,,
6,,1,1,6,,1,,6,,2,2,6,,2,,
6,,3,3,6,,3,,6,,4,4,6,,4,,
3,,8,8,3,,8,,3,,7,7,3,,7,,
36,,,,,,45,,27,,,27,,,18,,
4b/5b,,,,,,45,,27,,,45,,,1b/8b,,

4h[4:1],,,,6h[8:3],,7,,,,2h[4:1],,1,,8,,
,,2,1,8,1,8,7,8^3[8:1],,,,,,,,
4h[4:1],,,,6h[8:3],,1,,,,7h[4:1],,6,,1,,
,,5,6,4,5,3,4,3^8[8:1],,,,5,,6,,
7,,,8,,,7,,6,,5,,4,,3h[8:5],,
4,,,,4,,,,7h[4:1],,,,6,,,,
1,,,7,,,5,,4,,3,,2,,2h[8:5],,
{4}6,3,7h[4:1],6,

27,45,2b/7b,,
18,36,1b/8b,,
{1},
E

名前:
コメント:

タグ:

+ タグ編集
  • タグ:

このサイトはreCAPTCHAによって保護されており、Googleの プライバシーポリシー利用規約 が適用されます。

最終更新:2021年05月11日 21:46