LUCIA

BPM EASY BASIC ADVANCED EXPERT MASTER Re:MASTER
154 2 4 6 11 12 13

EASY


BASIC

(154){1},,,,
{1}6,
{1}5,
{1}4,
{1}4-1[16:5],
{2}8,7,
{2}6,5,
{1}5h[4:3],
{1}7h[4:3],
{2}1,2,
{2}3,4,
{2}4,2,
{1}1h[4:3],
{2}3,4,
{2}5,6,
{1}6h[4:3],
{1}4h[4:3],
{2}2,1,
{2}8,7,
{2}6,1,
{1}1,
{4},8,,7,
{4},1,,2,
{4},5,,6,
{4},3,,4,
{4},8,,7,
{4},1,,2,
{4},5,,6,
{1}5-8[16:9],
{4}7b,,8,8,
{2}7,7/8,
{4}6,,6,5,
{1}5h[2:1],
{4}6,,8,1,
{2}8,1/8,
{4}3,,1,8,
{1}1h[2:1],
{4}3b,,4,4,
{2}3,3/4,
{4}2,,2,1,
{1}1h[2:1],
{4}2,,4,5,
{2}4,4/5,
{2}6,8,
{4}1,,1/8,1/8,
{1}1-4[16:9]/8-5[16:9],,,,
{2}5,6,
{2}4,3,
{2}5,6,
{1}7-2[16:9],
{4},1,,8,
{4},2,,1,
{4},3,,2,
{4},4,,3,
{4},5,,4,
{1}5,
{2}6,5,
{1}4-1[16:9],
{4}8b,,7,7,
{2}6,5/6,
{4}5,,4,4,
{1}5h[2:1],
{4}4,,3,3,
{2}2,2/3,
{4}1/2,,8,1,
{4}8,,1,1,
{16}1-5[16:9],,,,,,,,,,,,,,
E

ADVANCED

(154){1}1,
{1}1,
{1}5,
{1}5,
{1}2-6[8:3],
{1}8-4[8:3],
{2}4,8,
{4}1/5,3/7,3/7,1b/5b,
{4}4,4,4,,
{4}8,8,8,,
{4}3,3,3,,
{4}7,7,7,2/6,
{4}1,1,1,,
{4}5,5,5,,
{4}8,8,8,,
{4}4,4,4,3/7,
{1}1h[8:3],
{1}5h[8:3],
{1}2h[8:3],
{4}6h[8:3],,,6,
{8}3h[8:3],,,5,,,,,
{8}3h[8:3],,,1,,,,,
{8}3h[8:3],,,7,,,,,
{8}7h[8:3],,,1,,,8b,,
{1}1h[4:3],
{1}3h[4:3],
{1}5h[4:3],
{1}7h[4:3],
{1}1-6[8:3],
{1}7-3[8:3],
{1}6-3[8:3],
{1}2-7[8:3],
{4}3,4,2,4,
{4}1,4,8,4,
{4}8,5,8,6,
{2}8h[2:1],7,
{4}6,5,7,5,
{4}8,5,1,5,
{4}1,4,1,3,
{1}1/2,
{4}2,2,2,2,
{4}4,4,4,4,
{4}6,6,7,7,
{1}8-4[8:3],
{4}5,5,4,4,
{4}3,3,2,2,
{4}1,1,8,8,
{4}7,7,6,5/6,
{1}8h[4:3],
{1}6h[4:3],
{1}4h[4:3],
{1}2h[4:3],
{1}1/8-4[8:3],
{1}8/1-5[8:3],
{2}2h[4:3],7h[4:1],
{1}1b/8b,
{4}1h[2:1],,3,4,
{2}5,6,
{4}7h[2:1],,8,1,
{2}2,1/8,
{4}3h[2:1],,1,7,
{4}5,,3/4,5/6,
{4}1b/8b,,4/5,3/6,
{2}2/7,1-4[16:3]/8-5[16:3],
{4}6,7,8,1,
{4}2,3,4,5,
{4}5,4,3,2,
{4}1,8,7,5/6,
{4}1,3,5,7,
{4}8,6,4,2,
{4}1/2,3/4,5/6,7/8,
{4}7/8,1/6,1/2,3/8,
{1}1b/8b,
E

EXPERT

(154){1}7h[1:1],
{1}1h[1:1],
{1}3h[1:1],
{8}5h[8:7],,,,,,,8,
{8}8h[8:7],,,,,,,6,
{8}6h[8:7],,,,,,,4,
{8}4h[8:7],,,,,,,2,
{2}2h[2:1],4-8[8:1],
{8}1,2,3h[4:1],,2h[4:1],,4,,
{8}8,7,6h[4:1],,7h[4:1],,5,,
{8}1,2,3h[4:1],,2h[4:1],,4,,
{8}8,7,6h[4:1],,7-3[8:1],,,,
{8}1,2,3-8[8:1],,1-6[8:1],,,,
{8}8,7,6-1[8:1],,8-3[8:1],,,,
{8}2,3,4-8[8:1],,1-5[8:1],,,,
{8}7,6,5-1[8:1],,8-4[8:1],,,,
{8}1,8,7h[4:1],,6-1[8:1],6,,,
{8}8,1,2h[4:1],,3-8[8:1],3,,,
{8}4,5,6h[4:1],,7-4[8:1],7,,,
{8}5,4,3h[4:1],,2-5[8:1],2,,,
{8}8,7,6h[4:1],,5-1[8:1],5,,,
{8}1,2,3h[4:1],,4-8[8:1],4,,,
{8}8,7,6h[4:1],,5-1[8:1],5,,,
{16}8h[8:3],,,,,,7,8,7b,,,,,,,,
{16}7h[16:3],,,6h[16:3],,,5h[16:3],,,4h[16:3],,,3,,,,
{16}2h[16:3],,,3h[16:3],,,4h[16:3],,,5h[16:3],,,6,,,,
{16}7h[16:3],,,6h[16:3],,,8h[16:3],,,5-1[8:1],,,,,,,
{16}2h[16:3],,,3h[16:3],,,1h[16:3],,,4-8[8:1],,,,,,,
{16}2h[16:3],,,3h[16:3],,,4h[16:3],,,5h[16:3],,,1,,1,,
{16}1h[16:3],,,8h[16:3],,,7h[16:3],,,6h[16:3],,,8,,8,,
{16}8h[16:3],,,1h[16:3],,,2h[16:3],,,3h[16:3],,,1,,1,,
{4}8-4[8:1],1-6[8:1],8-3[8:1],,
{16}1,,8,,7h[16:3],,,6h[16:3],,,5,,6,,,,
{16}8,,1,,2h[16:3],,,3h[16:3],,,4,,3,,,,
{16}4,,5,,6h[16:3],,,7h[16:3],,,8,,7,,,,
{16}5,,4,,3h[16:3],,,2h[16:3],,,1,,2,,,,
{16}1-6[8:1],,1,,,,,7h[16:3],,,6,,5,,4,,
{16}8-3[8:1],,8,,,,,2h[16:3],,,3,,4,,5,,
{16}7-3[8:1],,7,,,,,1h[16:3],,,8,,1,,2,,
{16}2-6[8:1],,2,,,,,8h[16:3],,,1,,8,,7,,
{16}7,,8,,1,,2,2h[16:3],,,3-8[8:1],,3,,,,
{16}2,,1,,8,,7,7h[16:3],,,6-1[8:1],,6,,,,
{16}3,,4,,5,,6,6h[16:3],,,7-4[8:1],,7,,,,
{16}6,,5,,4,,3,3h[16:3],,,2-5[8:1],,2,,,,
{16}8,,1,,2,,2,3h[16:3],,,4,,5,,6,,
{16}7,,6,,5,,5,4h[16:3],,,3,,2,,1,,
{16}1,,8,,7,,7,6h[16:3],,,5,,4,,3,,
{16}2,,3,,4,,4,5h[16:3],,,6,,7,,8,,
{1}1^6[2:1],
{1}5^2[2:1],
{2}8^3[4:1],4^7[4:1],
{4}1-5[4:1],,6h[4:1],7h[4:1],
{2}1^6[4:1],5^2[4:1],
{4}8-4[4:1],,3h[4:1],2h[4:1],
{4}1,,6h[4:1],8h[4:1],
{8}7h[2:1],,,,5,4,3,2,
{8}1^4[4:1],,,,,5,6,7,
{16}8h[8:3],,,,,,7,8,7^4[4:1],,,,,,,,
{8}1h[8:5],,,,,4,3,2,
{16}1h[8:3],,,,,,2,1,2^5[4:1],,,,,,,,
{8}8h[8:5],,,,,5,6,7,
{16}8h[8:3],,,,,,1,,1b/5b,,,2b/6b,,,3b/7b,,
{16}8/4h[8:3],,,,,,3,4,3,,2,,1^6[4:1],,1,,
{16},,,,,,3,4,3-7[8:1],,,,,,,,
{16}8,,7,,6,,6,5,,5,4,,4,,3b,,
{16}2,,1,,8,,8,1,,1,2,,2,,3b,,
{16}4,,5,,6,,6,5,,5,4,,4,,3b,,
{16}2,,1,,8,,8,7,,7,6,,6,,5b,,
{16}4,,3,,2,,2,1,,1,2,,2,,3b,,
{16}4,,5,,6,,6,7,,7,8,,8,,1b,,
{16}2,,1,,8,,8,7,,7,8,,8,,1b,,
{16}2,,3,,4,,4,5,,5,6,,6,,7b,,
{1}8-4[4:3],,
E

MASTER

(154){16}
3,,,1,,,7,,7,,,1,,,3,,
3,,,5,,,7,,7-3[8:1],,5-1[8:1],,,,,,
8,,,6,,,4,,4,,,6,,,8,,
8,,,2,,,4,,4-8[8:1],,2-6[8:1],,,,,,
7h[8:3],,,5,,,1,,1h[8:3],,,3,,,7,,
7h[16:3],,,1h[16:3],,,8,,1-5[8:1],,7-3[8:1],,,,,,
2,,,8,,,56,,4,,,2,,,78,,
1h[2:1],,,,,,3,4,5,,5,,2,1b,,,

1,,6,,3,,7,8,,4,3,,8,,,,
3,,8,,4,,1,2,,6,5,,2,,,,
5,,2,,7,,3,4,,8,7,,4,,,,
8,,3,,6,,2,1,,5,6,,1,,18,,
1h[4:1],,3,,5,,7,7,,1,1,,18,,,,
8h[4:1],,6,,4,,2,2,,8,8,,81,,,,
1-5[8:1],,1,,,,6,6,,3,4,,36,,,,
8-4[8:1],,8,,,,3,3,,6,5,,2,1,2,,
7,8,,4,3,,6,5,,1,2,,18,,,,
3,4,,6,5,,3,4,,6,5,,18,,,,
2,1,,4,5,,8,7,,1,8,,27,,,,
7,8,,5,4,,1,2,,8,1,,27,,18,,
1,3,,3,5,,5,7,,7,1,,17,,,,
8,6,,6,4,,4,2,,2,8,,82,,,,
1,3,,1,7,,7,5,,5,3,,8,1,2,,
7h[4:3],,,,,,2,1,8h[4:1],,,,,,,,

{1}
1-6[2:1]/4h[4:15],
6-3[2:1],
3-8[2:1],
8-5[2:1],
{4}
7-4[2:1]/5h[4:15],7,,,
4-1[2:1],4,,,
1-6[2:1],1,,,
6^1[2:1],6,,,

1-5[8:1],8-4[8:1],7-3[8:1],,
6-2[8:1],5-1[8:1],4-8[8:1],,
3-7[8:1],2-6[8:1],1-5[8:1],,
1^6[4:1],6^3[4:1],3^8[8:1],,
1-5[8:1],7-3[8:1],5-1[8:1],,
8-4[8:1],2-6[8:1],4-8[8:1],,
8^3[4:1],3^6[4:1],6-1[8:1],,
7b/8b,5b/6b,3b/4b,1b/2b,

1-4[8:1]/5-8[8:1],,4^1[8:1]/8^5[8:1],,
1-6[8:1]/5-2[8:1],,6^1[8:1]/2^5[8:1],,
1-6[8:1]/5-2[8:1],,6-3[8:1]/2-7[8:1],,
34,78,5-2[8:1]/6-1[8:1],,
7-2[4:1],2-6[4:1],6-3[4:1],3-8[4:1],
8-5[4:1],5-1[4:1],1-4[4:1],4^7[4:1],
7^2[4:1],2^5[4:1],5^8[4:1],8-5[4:1],
5-2[4:1],2-7[4:1],7^4[4:1],,

1h[1:1],3,3,7,
7h[1:1],5,5,2,
2h[2:1],3,3h[2:1],4,
4h[4:3],3^8[4:1],,,
8h[2:1],6,2h[2:1],4,
8h[2:1],7,1h[4:1],3h[4:1],
5h[2:1],,1h[2:1],,
3h[4:3],1^6[4:1],,,

{8}
15,,,,,1-5[8:1],7-3[8:1],1,
7,,,,26,,,,
37,,,,,8-4[8:1],2-6[8:1],8,
2,,,{16}1,8,{8}7,,,,
48,,,,,37,26,15,
48,,,{16}15,26,37,,,78,,,45,,
1b/2b,,,,,,18,27,{8}36,45,36,27,
18,,1-5[8:1],,4-8[8:1]/1b,,4b,,

{16}
3,4,3,4,2,,7,8,7,8,6,,15,,37,,
6,5,6,5,7,,2,1,2,1,3,,48,,26,,
1,8,2,7,8,,5,4,6,3,4,,12,,38,,
5,6,4,7,4,5,3,6,3,4,2,5,1b,,,,
3,4,2,4,3,,7,8,6^3[8:1],8,7,,,,,,
6,5,7,5,6,,2,1,3^6[8:1],1,2,,,,,,
2,8,1,7,2,,5,3,6,4,6,,36,27,18,,
1b,,3,,5,,7,,1b,2,3,4,5-2[2:1],6,7,8,
{1}1b,
,,,,
E

Re:MASTER


名前:
コメント:

タグ:

+ タグ編集
  • タグ:

このサイトはreCAPTCHAによって保護されており、Googleの プライバシーポリシー利用規約 が適用されます。

最終更新:2022年05月06日 04:28