神室雪月花

BPM EASY BASIC ADVANCED EXPERT MASTER
86 2 4 6 9 10

EASY


BASIC


ADVANCED


EXPERT

(86){16}
34,,,56,,,3-7[8:1]/4,,,,,,,,,,
65,,,43,,,6-2[8:1]/5,,,,,,,,,,
{8}
8h[2:1],,,7,7h[2:1],,,6,
6h[2:1],,,5,5h[4:3],,,1,
1^4[4:1],,,,5-1[4:1],,,,
8h[2:1],,,7,7h[2:1],,,6,
6h[2:1],,,5,5b,,,8,

8-4[2:1],,,8,8h[4:1],,,1,
1-5[2:1],,,1,1h[4:1],,,7,
7^2[2:1],,,7,7h[4:1],,,3,
3^6[2:1],,,3,3h[4:1],,,{16}8,8,
8-5[4:1],,,,,,2,,2^7[4:1],,,,,,1,1,
1-4[4:1],,,,,,7,,7^2[4:1],,,,,,7,7,
7-4[4:1],,,,,,6,,6^1[4:1],,,,,,
{19},3,,3,,3,,3-8[2:1],,3h[152:99],,,,,,,,,,
{16},,
{1},

{8}
7h[4:7]/3h[4:1],,,3,3,,,,
2,,2^5[4:1],,,,,,
8h[2:1],,,1,1h[2:1],,8-5[4:3],,
,,1-4[4:1],,,,,,
{1}
6h[4:7]/3^8[2:1],
8^3[2:1],
{4}
7h[4:7],1,1-6[4:1],,
,6-2[4:1],,,

5h[8:31]/2h[4:1],,2,,
1-4[2:1],,,,
6^1[2:1],,,,
{8},,6,,,6,,6-2[8:11],
{1},
,
(79.6){16}7h[8:3],,,,,,(75)8,7,(68.96)6-2[2:1],,,,(86){4}4-8[4:5],
{1},,,
E

MASTER

(86){16}
37,37,,26,26,,15,15,4^7[8:1]/8^3[8:1],,48,,,,,,
26,26,,37,37,,48,48,1^6[8:1]/5^2[8:1],,15,,,,,,
{4}
6-1[8:5],5,4,3,
1-5[8:5],8,7,6,
5-8[8:5],4,3,2,
8-4[4:3],,,,
,{16},,7,8,1,,,,,,5,4,

3^8[2:1]/8h[4:1],,3,,,,3,,3h[4:1],,,,,,4,5,
6^1[2:1]/1h[4:1],,6,,,,6,,6h[4:1],,,,,,,,
3h[4:1]/7h[8:3],,,,,,3,,3h[4:1]/4,,5,,,,2,1,
8,,,7,,8,,,,,,,,,8,2,
4-1[2:1]/6h[4:1],,4,,,,4,,4h[4:1],,,,,,2,1,
8-5[2:1]/3h[4:1],,8,,,,8,,8h[4:1],,,,,,7,8,
8,1,1,2,,,3b,,3b,,,,,,1,8,
{8}
4-1[8:5],,5-8[8:3],,,,,,
1b/2b,3b/4b,5b/6b,7b/8b,1b/8b,6b/7b,4b/5b,2b/3b,

1-5[4:1],1,5-8[4:1],5,8-4[4:1],8,4-7[4:1],4,
7-2[4:1],7,2-6[4:1],2,,,,,
8h[8:3],,,3,5h[4:1],,,{16}1-4[8:1],8-5[16:1],
1,,,,,,8-5[8:1],1-4[16:1],{8}8,,,,
8-4[4:1],8,4-1[4:1],4,1-5[4:1],1,5-2[4:1],5,
2-7[4:1],2,7-3[4:1],7,,,,,
{12}1,1,1,{16}6,6,6,6,,4,{32},4,{16},4,,8,,
38,,8h[8:3],3,,,3,,3b,,,,,,6,7,

8^3[2:1]/6h[4:1],,,,,,8,,8h[4:1],,,,,,3,2,
1^6[2:1]/3h[4:1],,,,,,1,,1h[4:1],,,,,,,,
5h[8:3],,,,,,1,,4,4,,,,,,,
4-1[4:1],,,,4-7[4:1],,,,4-8[4:1],,,,,,,,
1h[1:1],,,,,,4,5,6,,,,,,4,3,
{2}2,18,
(79.6){16}7h[2:1],,,,,,(75)8,1,(68.96)2,,,,(86){32}2^7[4:9],,,,,2,,,
{8},2,,,{2},
{1},,
E

名前:
コメント:

タグ:

+ タグ編集
  • タグ:

このサイトはreCAPTCHAによって保護されており、Googleの プライバシーポリシー利用規約 が適用されます。

最終更新:2013年10月02日 00:57