全人類ノ非想天則

BPM EASY BASIC ADVANCED EXPERT MASTER
168 3 4 7 10 13

EASY


BASIC

(168.0){1},
{2}1,1,
{1}2h[2:1],
{2}3,3,
{1}4h[2:1],
{2}5,5,
{1}6h[2:1],
{2}7,7,
{1}8h[2:1],
{1}1h[2:1],
{2}8,8,
{2}7,7,
{4}6,6,6,,
{2}5/6,5/6,
{2}4,4,
{2}3,3,
{4}2,2,2,,
{1}1h[2:1]/2h[2:1],
{2}1,1,
{2}2,2,
{4}3,3,3,,
{2}3/4,3/4,
{2}5,5,
{2}6,6,
{4}7,7,{2}7-2[4:3],{1},
{2}1,8,
{2}7,6,
{4}5,5,{2}5-1[4:3],{1},
{1}2h[8:3],
{1}1h[8:3],
{1}8h[8:3],
{1}7h[8:3],
{1}1h[2:3]/8h[2:3],,
{4}7,7,8,8,
{1}1b,
{4}2,2,,,
{4}2,2,,,
{2}2,1,
{2}8,7,
{4}7,7,,,
{4}7,7,,,
{2}7,8,
{4}1,1,1,,
{1}2-6[4:3],,
{2}7,8,
{4}1,1,1,,
{1}8-5[4:3],,
{1}1h[2:1],
{2}1/8,1/8,
{4}2,2,1b,,
{4}2,2,1b,,
{2}3,4,
{2}5,6,
{4}7,7,8b,,
{4}7,7,8b,,
{2}6,5,
{4}4,4,3,,
{4}2,2h[8:3],,,
{4}2,2h[8:3],,,
{2}3,4,
{4}5,5,6,,
{4}7,7h[8:3],,,
{4}7,7h[8:3],,,
{2}8,1,
{2}1/8,1/8,
{1}1h[2:3]/8h[2:3],,
{1}2h[2:3]/7h[2:3],,
{2}1,2,
{2}3,4,
{2}5,6,
{4}7,7,7,,
{4}8,8,8,,
{1}1-5[4:3],,
E

ADVANCED

(168.0){1},
{1}2h[4:3],
{1}2h[4:3],
{1}7h[4:3],
{1}7h[4:3],
{1}1-5[8:3],
{1}8-4[8:3],
{1}1-4[8:3]/8-5[8:3],
{1}2h[4:3]/7h[4:3],
{1}1h[4:3]/8h[4:3],
{2}8,7,
{2}6,5,
{2}4,3,
{4}2,2,2,,
{2}1,2,
{2}3,4,
{2}5,6,
{4}7,7,7,7b,
{2}8,7/8,
{2}2,1/2,
{2}4,4/5,
{4}6,6,5/6,,
{2}1,1/8,
{2}3,3/4,
{2}5,5/6,
{4}7,7,1b/8b,,
{2}2h[2:1],4,
{2}7h[2:1],5,
{2}3h[2:1],4,
{2}6h[2:1],5,
{1}1-5[8:3],
{1}8-4[8:3],
{1}4-1[8:3]/5-8[8:3],
{8}1/8,,,1/8,,,{4}1^4[8:5]/8^5[8:5],{1},
{1}4h[2:1]/5h[2:1],
{1}3h[2:1]/6h[2:1],
{2}2/7,1b/8b,
{8}2h[8:3],,,3,,3,,,
{8}7h[8:3],,,6,,6,,,
{4}2,1,8,7,
{4}6,5,4,3,
{8}1h[8:3],,,8,,8,,,
{8}8h[8:3],,,1,,1,,,
{4}3,4,5,6,
{4}7,8,1,2,
{8}8h[8:3],,,2,,2,,,
{8}1h[8:3],,,7,,7,,,
{4}6,6,3,3,
{4}5,5,4,4,
{8}7h[8:3],,,1,,1b,,,
{8}2h[8:3],,,8,,8b,,,
{1}2b/7b,
{16},,1/8,,1/8,,,,2/7,,,2/7,,,1/8,,
{1}1h[1:1]/8h[1:1],,
{4}4,6,2,8,
{4}1/8,2/7,3/6,4/5,
{8}2h[8:3],,,3,,4b,,,
{8}7h[8:3],,,6,,5b,,,
{4}1,7,3,5,
{4}4/5,3/6,2/7,1/8,
{8}1h[8:3],,,8b,,7b,,,
{8}8h[8:3],,,1b,,2b,,,
{4}4,3,2,1,
{4}1/5,2/6,3/7,4/8,
{8}2h[8:3],,,3b,,2b/3b,,,
{8}7h[8:3],,,6b,,6b/7b,,,
{1}3/7,
{16},,1/8,,1/8,,,,2/7,,,2/7,,,1/8,,
{1}1h[2:3]/8h[2:3],
{4},,,1^4[4:3]/8^5[4:3],{1},,
{4}1,1,3,3,
{4}5,5,7,7,
{4}8,8,6,6,
{4}4,4,2,2,
{4}1/8,2/7,3/6,4/5,
{8},,,,,,,1h[8:3]/8h[8:3],,,,
E

EXPERT

(168.0){1},
{4}1,8,2-6[4:1],,
{4}8,7,6,5,
{4}4,5,3-8[4:1],,
{4}7,6,5,4b,
{4}7,8,6-1[4:1],,
{4}2,3,4,5,
{4}6,5,7-4[4:1],,
{4}3,2,1,8,
{4}7,6,5,1b/8b,
{4}1,3/4,1,5/6,
{4}3,6/8,5,1/3,
{4}2h[4:3],1,8,7,
{8},1b,1b,1b,,,4h[4:1],,
{4}8^5[4:1],,3,5,
{4}7,1h[2:1],,8,
{16}6,,,,4,,,,2,,,2,,,2h[8:5]/8-4[8:3],,
{8},,,,,,,5b,
{4}5b,2,3/4,5,
{4}6/7,8,1/2,3,
{4}1-4[4:1],5-8[4:1],,1,
{8},8b,8b,8b,,,6,,
{4}7^2[4:1],,,3,
{4}4,5,6,1,
{8}1h[2:1],,,,5h[8:3],,,4,
{16},4-1[16:5]/5-8[16:5],,,,,,,,,,,,,,,
{8}4/5,,,4/5,3/6,,1b/8b,,
{8}3/6,,,3/6,2/7,,1b/8b,,
{1}1-4[8:3]/5-8[8:3],
{1}4^1[8:3]/8^5[8:3],
{16}6b/7b,,,5b/6b,,,4b/5b,,,,2,,1,,,,
{16}1b/2b,,,2b/3b,,,3b/4b,,,,4,,5,,,,
{16}4b/5b,,,3b/4b,,,2b/3b,,,,1,,8,,,,
{8}1/5,,,2/6,,,3^8[4:3]/7^4[4:3],,
{1}3/7,
{1}3b/6b,
{1}2b/7b,
{4}1b/8b,1-5[8:1]/8-4[8:1],,,
{8}1/8,,3/6,2b,,7b,,5,
{8}4,,4/5,2b,,7b,,,
{8}1h[8:3],,3,3h[4:1],,8h[4:1],,6,
{8}1,1,8,7,8,1,,1/8,
{8}1h[8:3],,6,6b,,8b,,,
{8}8h[8:3],,3,3b,,1b,,,
{8}5h[4:1],,4,6h[4:1],,3,,7,
{8}8,1,2,3h[8:3],,,,,
{8}3h[4:1],,7,2b,,2b,,,
{8}5h[4:1],,1,7b,,7b,,,
{8}1/3,,7,6/8,,3/5,,4/6,
{8}8,8,7,8,1,2,,1,
{8}2-5[8:1],,,6-1[8:1],,,,,
{8}7-4[8:1],,,3-8[8:1],,,,,
{8}5,,3,4,,2/7,,1/8,
{16},,1/5,,1/5,,,,2/6,,,3/7,,,4/8,,
{8}7h[8:5],,,8b,,1b,,,
{8}2h[8:5],,,1b,,8b,,,
{8}8h[8:3],,7,7,,1h[4:1],,2,
{8}4,3,4,3,6,5,,8,
{8}1-5[8:1],,,8-4[8:1],,,,,
{8}3-7[8:1],,,{625}2-6[8:1],,,,,,,,,,,,,,,,,,,,,,,,,,,,,,,,,,,,,,,,,,,,,,,,,,,,,,,,,,,,,,,,,,,,,,,,,,,,,,,,,,,,,,,,,,,,,,,,,,,,,,,,,,,,,,,,,,,,,,,,,,,,,,,,,,,,,,,,,,,,,,,,,,,,,,,,,,,,,,,,,,,,,,,,,,,,,,,,,,,,,,,,,,,,,,,,,,,,,,,,,,,,,,,,,,,,,,,,,,,,,,,,,,,,,,,,,,,,,,,,,,,,,,,,,,,,,,,,,,,,,,,,,,,,,,,,,,,,,,,,,,,,,,,,,,,,,,,,,,,,,,,,,,,,,,,,,,,,,,,,,,,,,,,,,,,,,,,,,,,,,,,,,,,,,,,,,,,,,,,,,,,,,,,,,,,,,,,,,,,,,,,,,,,,,{769}4h[673:170],,
{8},,5,3h[4:1],,6,,2,
{8}1,8,7,6h[8:3],,,,,
{8}7^4[1250:153],,,8^3[8:1],,,,,
{8}2^5[8:1],,,1^6[8:1],,,,,
{8}6/8,,3,2/4,,3/6,,7,
{8}8,1,2,1,8,7,,8,
{8}7^4[8:1],,,1^6[8:1],,,,,
{8}2^5[8:1],,,8^3[8:1],,,,,
{8}4,,6,5,,2/7,,1/8,
{16},,4b/8b,,4b/8b,,,,3b/7b,,,2b/6b,,,1b/5-1[8:11],,
{1}5h[2:3],
{4},,,1-6[1:1]/8-3[1:1],{1},,
{16},,8,,1,,8,,1/8,,,1/8,,,1/8,,
{8}2,1,8,7h[4:1],,8,1,2,
{16},,5,,4,,5,,4/5,,,4/5,,,4/5,,
{8}3,4,3,4,,6,5,,
{8}3,4,,7,8,7,8,1b,
{8},,,,,,,1/8,
{8},1/8,2b/7b,
E

MASTER

(168){16}
,,2,1,2,1,2,,5,,,6,,,1^6[8:1],,
6^3[8:1],,,,,,8h[4:1],,,,3,,2,,1,,
,,8,7,8,7,8,,4,,,3,,,8^3[8:1],,
3^6[8:1],,,,,,1h[4:1],,,,7,,6,,5,,
,,5,6,5,6,5,,1,,,2,,,3^8[8:1],,
8^5[8:1],,,,,,2h[4:1],,,,4,,5,,6,,
,,3,4,3,4,3,,7,,,8,,,2-5[8:1],,
2,,,,7-4[8:1],,7,,,,1-6[8:1],,1,,,,
8-3[8:1],,8,,,,1,,5,,6,,7,,8,,

{8}
1h[4:1],,2,1h[4:1],,8,8,,
7h[4:1],,8,7h[4:1],,6,6,,
5h[4:1],,6,5h[4:1],,4,4,3,
,2b,1b,8b,,7,8,1,
2h[4:1],,1,6h[4:1],,5,5,,
8h[4:1],,7,4h[4:1],,3,3,,
2,7,3,8,{16}4h[16:3],,,3h[16:3],,,{8}2,
,5,5,5,6,5,,2,
1-5[8:1],,7,7h[4:1],,5,56,,
8-4[8:1],,2,2h[4:1],,4,43,,
3-7[8:1],,5,5h[4:1],,7,7,1,
,1b/2b,1b/8b,7b/8b,,6,5,4,
3^8[8:1],,7,7^4[8:1],,3,3,,
6^1[8:1],,2,2^5[8:1],,6,6,,
5,4,3,2,18,27,,36,
,4-1[8:1]/5-8[8:1],45,,,,1^6[8:5],,

1h[2:1],,,,,,1,1,
{16}
1b/5,,,8b/4,,,7b/3,,,,2,,3,,4,,
15,,26,,37,,48,,1h[16:3],,,3h[16:3],,,4h[2:1],,
,,6b,,7b,,8b,,,,,,3,,4,,
56,,,5,6,,4-8[8:1]/7-3[8:1],,,,,,,,,,
43,,,3,4,,5-1[8:1]/2-6[8:1],,,,,,,,,,
18,,,1,8,,2-6[8:1]/7-3[8:1],,,,,,,,,,
{8}
5-1[8:1],,,4-8[8:1],,,1,,
6h[4:7]/8h[4:1],,,4h[4:1],,,7h[4:1],,
,2h[4:1],,,5b,,8b,,
1h[8:1],2h[8:1],3h[8:1],4h[8:1],5h[8:1],6h[8:1],7h[8:1],8,
1b/2b,4b/5b,,7b/8b,,4,3,{16}2-6[8:1],1,

2,,,,,,8b,,,,8b,,,,7-3[8:1],8,
7,,,,,,1b,,,,1b,,,,2,8,
2h[8:3],,,,4,,4h[4:1],,,,5h[4:1],,,,7,,
5,,4,,3,,2,,1,,8,,,,7-4[8:1],8,
7,,,,,,1b,,,,1b,,,,2-5[8:1],1,
2,,,,,,8b,,,,8b,,,,7,1,
7h[8:3],,,,5,,5h[4:1],,,,4h[4:1],,,,2,,
4,,3,4,3,,5,2,5,,1,6,1,,7-3[8:1],8,
7,,,,,,2b/5,,,,6b/3,,,,2-6[8:1],1,
2,,,,,,7b/4,,,,3b/6,,,,6,5,
6,,,,3,4,3,,,,7,8,7,,,,
57,,68,,17,,28,,13,,24,,,,3,4,
3-8[8:1],,,,2,,1,,,,46,,,,6,5,
6-1[8:1],,,,7,,8,,,,35,,,,7,8,
7,,,,3,4,3,,,,2h[4:1],,,,6,,
,,15,,26,,,,48,,,26,,,1-6[8:1]/2-5[8:1],,
12,,,,,,8b,,,,8b,,,,8-3[8:1]/7-4[8:1],,
87,,,,,,1b,,,,1b,,,,2,4,
2,,,,4,6,4,,,,6,8,6,,,,
7h[8:5],,8,,1,,2,,3,,4,,,,8-3[8:1]/6-3[8:1],,
68,,,,,,1b,,,,1b,,,,1-6[8:1]/3-6[8:1],,
31,,,,,,8b,,,,8b,,,,7,5,
7,,,,5,3,5,,,,3,1,3,,,,
6,,5,6,5,,7,4,7,,3,8,3,,1-5[8:1],2,
1,,,,,,2b/6,,,,8b/4,,,,8-4[8:1],7,
8,,,,,,7b/3,,,,1b/5,,,,7,1,
8,,,,2,4,3,,,,6,4,5,,,,
2h[8:5],,1,,8,,7,,6,,5,,,,12,38,
4h[4:1]/7h[4:1],,,,,,8b,,,,8b,,,,87,61,
5h[4:1]/2h[4:1],,,,,,1b,,,,1b,,,,1,3,
5,,,,8,6,4,,,,27,36,45,,2b/7b,,
,,48,,57,,,,26,,,15,,,48,,

{4}
2-5[4:5]/6-1[4:5],,,,
,,,4-7[4:7]/8-3[4:7],
,,,,
,,,,
{16}
,,1,7,8,7,1,,2,,,3,,,7,,
7-3[8:1],,3-6[8:1],,,,1h[4:1],,,,5,,6,,7,,
,,8,2,1,2,8,,7,,,6,,,3-8[8:1],,
34,,,,6-1[8:1],,56,,,,4-8[8:1],,24,,,,
5-1[8:1],,57,,,,3,,12,,38,,78,,16,,
2-6[8:1],2,2,,,,7-3[8:1],7,7,,,,,,2b/6b,,
,,3b/7b,,1b/5b,,,,,,,,,,,,

{1},
E

名前:
コメント:

タグ:

+ タグ編集
  • タグ:

このサイトはreCAPTCHAによって保護されており、Googleの プライバシーポリシー利用規約 が適用されます。

最終更新:2022年08月06日 07:57