地上の戦士

BPM EASY BASIC ADVANCED EXPERT MASTER
130 1 4 6 8 9

EASY


BASIC


ADVANCED


EXPERT


MASTER

(130){16}
,,8,1,2-7[8:1],,,,,,,,,,,,
,,8,7,6-3[8:1],,,,,,,,,,,,
18,,,,45,,,,17,,,48,,{32},{16}25,,{32},{16}
37,,,16,,{32},{16}24,,{32},{16}5-2[2:1]/6-1[2:1],,,,,,,,
,,,,,,,,,,{32},3,4,5,{16}6,,,,
3,,46,,25,,,,34,,,56,,,34,,
6,,53,,74,,,,65,,,43,,,65,,
,,34,,6,7,8^3[8:1],,4,,,6,,,4,,
56,,3,,25,,,,46,,,35,,,6,5,

4h[2:1],,,,1-5[8:1],,,,,,,,3,,4,,
5h[2:1],,,,8-4[8:1],,,,,,,,,,7,8,
1h[2:1],,2,,3,,4,,8h[2:1],,7,,6,,5,,
1h[2:1],,,,,,,,,,,,,,24,3,
2-5[8:1]/4,,,,,,,,,,,,57,,6,,
7-4[8:1]/5,,,,,,,,,,,,2,,1,,
8h[2:1],,,7,,,6,,1h[2:1],,,2,,,3,,
7h[2:1],,,8,,,1,,2h[8:3],,,1,,,8,,

1h[4:1]/5h[4:1],,,,,,48,15,26,,,,5h[4:1]/4,,,,
7h[4:3],,,,5,,,,2h[4:1],,,,,,8,7,
6,,,5,,,8,1,2,,,3,,,4-8[8:1],,
4h[4:3],,,,,,1-5[8:1],,1,,,,,,,,
1h[4:1]/3h[4:1],,,,,,13,28,17,,,,,,68,,
8h[4:1]/6h[4:1],,,,,,86,71,82,,,,,,3,2,
1,,,1,,,6,7,8,,,8,,,5-8[1:1],,
5,,,,,,4-1[8:7],,4,,,,,,,,
{2},,

1-5[8:1]/7-3[8:1],2^5[8:1]/8^5[8:1],
1-5[4:1]/8-4[4:1],{16},,,,,,8,1,
2-6[8:1],,,,,,1,8,7-3[8:1],,,,,,8,1,
2^7[4:1],,,,,,,,,,,,,6,7,8,
1h[2:1],,,2,,,3,,8h[2:1],,,7,,,6,,
1h[4:5],,,,,,,,,,,,4,,3,,
2-7[4:1],,,,,,1,,1-4[4:1],,,,,,,,
3-8[16:1],,,,6-1[16:1],,,,2-5[16:1],,,,7-4[16:1],,,,
1-5[8:1],,,2,,,3,,8-4[8:1],,,7,,,6,,
5h[2:1],,,,7,,,,3,,3,,2,,1,,
8-5[8:1],,,,7h[4:1],,,,1-4[8:1],,,,2h[4:1],,,,
8-5[4:1],,,,,,,,,,,,,,,,
34,,,18,,,56,,23,,,,67,,,,
45,,45,,36,,27,,1b/8b,,,,,,27,36,
4b/5b,,4b/5b,,4b/5b,,,,6-2[8:1],,,,3-7[8:1],,,,
4-1[4:1],,,,,,,,,,,,,,36,27,
1b/8b,,1b/8b,,1b/8b,,,,1-6[8:1],,,,2-5[8:1],,,,
8-3[8:1],,,,7-4[8:1],,,,5-8[1:1],,,,,,,,
{1},
{8}
1h[4:9],,,8^5[4:5],8,,,,
{1},
{16},,,,,,,,
,,8,1,2-7[8:1],,,,,,,,,,,,
,,8,7,6-3[8:1],,,,,,,,,,,,
18,,,,45,,,,17,,,48,,{32},{16}25,,{32},{16}
37,,,16,,{32},{16}24,,{32},{16}5h[4:1]/6h[4:1],,,,,,18,,
{6}23,67,3-8[8:19]/4-7[8:19],,,,

{1},,,,
E

名前:
コメント:

タグ:

+ タグ編集
  • タグ:

このサイトはreCAPTCHAによって保護されており、Googleの プライバシーポリシー利用規約 が適用されます。

最終更新:2013年10月09日 18:03