NIGHT OF FIRE

BPM EASY BASIC ADVANCED EXPERT MASTER
155 3 7 7 10 11+

EASY


BASIC

(155.3){1},
{1}4,
{1}5,
{1}6,
{1}7h[2:1],
{1}7h[2:1],
{1}7h[2:1],,
{2},1h[4:3],
{2},8h[4:3],
{2},2h[4:1],
{4}7h[4:1],,8,1,
{4}8,1,1h[4:3],,
{2},8h[4:3],
{2},2h[4:1],
{4}7h[4:1],,8,1,
{4}8,1b,5,4,
{4}2,2,4,5,
{4}7,7,1/8,1/8,
{4}4/5,4/5,2,7,
{4}2,7,1,8,
{4}6,6,8,1,
{4}3,3,1/8,1/8,
{4}4/5,4/5,2,7,
{4}2,7,,7,
{4},7,,2,
{4},2,1/8,1/8,
{4},,1/8,1/8,
{4},,,7,
{4},7,,2,
{4},2,7-2[2:1],,
{2},2-7[2:1],
{4},,8,1,
{4}1/8,,2,7,
{4}2h[4:1],,7,2,
{4}7h[4:1],,2,2,
{4}7,7,8,1,
{4}1/8,,8,1,
{4}2h[4:1],,1,8,
{4}7h[4:1],,2,2,
{4}7,7,8,1,
{8}2,2b,,,8,,3,,
{4}2h[4:1],,1,6,
{4}7h[4:1],,2,2,
{4}7,7,1,8,
{8}7,7b,,,3,,2,,
{4}2h[4:1],,6,7,
{4}7h[4:1],,2,2,
{4}7,7,1h[4:3],,
{2},8h[4:3],
{4},,2h[4:1],1h[4:1],
{4}8h[4:1],,8,1,
{4}7,2,3h[4:3]/8h[4:3],,,,
E

ADVANCED

(155.3){1}1h[4:3],
{1}2h[4:3],
{1}3h[4:3],
{1}4h[4:3],
{4}7,2,{2}3/8h[4:5],{1},
{1}1h[4:3],
{4}2h[4:3],,,7-2[4:1],
{4},,8,7,
{4}8,7,3,4,
{4}3,4,1/8,2,
{4}1/8,7,3-8[4:1],,
{4}6-1[4:1],,8,7,
{4}8,7,3,4,
{4}3,4,1/8,2,
{4}1/8,7,6h[4:3],,
{4},,3,3/4,
{4}8,7/8,1,1/2,
{4}5,5/6,2h[4:1],1,
{4}8h[4:1],7,6/7,7/8,
{4}1/8,1b/2b,3,3/4,
{4}8,7/8,1,1/2,
{4}5,5/6,2h[4:1],1,
{4}8h[4:1],7,2h[4:1],1h[4:1],
{4}8h[4:1],7h[4:1],,2/7h[2:1],
{4}6,1b,7,7/2h[2:1],
{4}3,8b,1h[4:1],,
{4}8h[4:1],,1,2/6,
{4}8,3/7,2,2/7h[2:1],
{4}6,1b,7,7/2h[2:1],
{4}3,8b,1,7-2[4:1],
{4},,,2-7[4:1],
{4},,5/8h[4:1],2,
{4}4/1h[4:1],7,2,6,
{4}1h[4:1],3,7,3,
{4}8h[4:1],6,1,1,
{4}8,8,6/5h[4:1],1,
{4}3/4h[4:1],8,2,6,
{4}1h[4:1],3,7,3,
{4}8h[4:1],6,1,1,
{4}8,8,2/1h[4:1],8,
{4}7/8h[4:1],1,3,7,
{4}4h[4:1],2,6,2,
{4}5h[4:1],7,8,8,
{4}1,1,6/8h[4:1],2,
{4}3/1h[4:1],7,6,2,
{4}5h[4:1],7,3,7,
{4}4h[4:1],2,8,8,
{4}1b/2b,2b/3b,7h[4:3],1,
{4}5,1,2h[4:3],8,
{4}4,8,8/1h[4:1],2,
{4}1/8h[4:1],7,8,1,
{4}2,3,2h[4:3],,,,
E

EXPERT

(155.3){4}6h[1:1],7^2[4:1],,,
{1}2h[1:1],
{1}8h[1:1],
{1}4h[1:1],
{4}7h[2:1],6,{2}2h[4:9],{1},
{1}8h[4:3],
{16}2,,,2,,,1,,,1,,,8-5[4:1],,,,
{4},,2,3,
{4}1h[4:1],8,6h[4:1],2h[4:1],
{4}8h[4:1],4h[4:1],7,6,
{4}5h[4:1],4,2^7[8:1],,
{4}7^2[8:1],,1,2,
{4}3h[4:1],2,1h[4:1],5h[4:1],
{4}7h[4:1],3h[4:1],8,7,
{4}1,2,1/7,3/8,
{4}2/5,4/6,4/8,3,
{4}2,3,1/5,6,
{4}3/7,1,8,6h[4:1],
{4}8h[4:1],1,4/8,1/5,
{4}3/7,2/6,4/8,3,
{4}2,3,1/5,6,
{4}3/7,1,8,3h[4:1],
{4}1h[4:1],8,2/3,6/7,
{8}3/4,,5/6,,2,,2,5h[4:1],
{8},4,,6,,6,2h[2:1],,
{4}3,8-4[4:1],,6-2[4:1],
{8},,,,1,2,1,2,
{8}6,5,6,5,7,,7,4h[4:1],
{8},5,,1,,1,6h[2:1],,
{4}8,3,7h[8:7],6-3[4:1],
{8},,,,,2,1,2,
{8}8,7b,,,2/6,,4/8h[4:3],,
{4}6-1[4:1],,,4/8,
{4}1/2h[2:1],6,,1/5,
{8}8/7h[8:3],,3,3,,2/3,1/2,,
{4}1/8,1/8,3/7,5/1h[4:3],
{4}3-8[4:1],,,1/5,
{4}8/7h[2:1],3,,4/8,
{8}1/2h[8:3],,6,6,,6/7,7/8,,
{4}1/8,1/8,2/6,4/8h[4:3],
{4}6-1[4:1],,,4/8,
{4}1/2h[2:1],6,,1/5,
{8}8/7h[8:3],,3,3,,1/2,2/3,,
{4}6/7,1/8,3/7,5/1h[4:3],
{4}3-8[4:1],,,1/5,
{4}8/7h[4:1],3,,4/8,
{8}1/2h[8:3],,6,6,,,1/3,,
{4}6/8,1b/8b,2,3,
{4}1h[4:1],2,6h[4:1],2h[4:1],
{4}8h[4:1],4h[4:1],7,6,
{4}5h[4:1],6,,1,
{4}2,3,2h[4:3],,,,
E

MASTER

(155){8}
7,,8,,28,7h[8:3]/1,,,
{1}
6h[1:1],
5h[1:1],
4h[1:1],
{8}
3,,4,,46,3h[8:9]/5,,,
2,,2,,2,,2,,
1,,8,,7,,6,,
{16}
67,,,18,,,23,,,45,,,17,,2b/8b,,
(155.5){2}
2h[4:1]/7h[4:1],

(155.35){16}
8,,7,,8,,7,,6,6,,7,,,8,,
1,,,2,,,1,,,2,,,1,,,,
7,,6,,7,,6,,2,3,,2,,,3,,
28,,,17,,,28,,,17,,,28,,,,
8,,7,,8,,7,,6,6,,7,,,8,,
1,,,2,,,1,,,2,,,1,,,,
7,,6,,7,,6,,2,3,,2,,,3,,
28,,,17,,,28,,,17,,,28,,1b/7b,,

4h[4:1],,,,3,,,,2,,1,,12,,,,
5h[4:1],,,,6,,,,7,,78,,7,,1,,
8,,1,,8,,1,,4,5,,4,,,5,,
17,,,28,,,17,,,28,,,17,,17,,
4h[4:1],,,,3,,,,2,,1,,12,,,,
5h[4:1],,,,6,,,,7,,8,,78,,1,,
8,,1,,8,,1,,4,5,,4,,,5,,
17,,,28,,,17,,,28,,,17,,17,,

{8}
2,,7,8,,45,,7,
,2,1,,27,,45,,
5,6,5-2[8:1],,4,3,4-7[8:1],,
1,8,1,8,,7,8,1,
2,,7,8,,36,,7,
,2,1,,45,,27,,
7h[4:1],,2h[8:1],,3h[4:1],,6h[8:1],1,
2h[4:1],,7h[8:1],,46,35,,,

(155.3)
8h[4:1],,1h[4:1],,2h[2:1],7h[8:3],,,
,2,1,2,7,6,5,,
,7,8,7,2,3,4,4,
,3,2,2,6,,7b,,
8h[4:1],,1h[4:1],,2h[2:1],7h[8:3],,,
,2-5[8:1],2,1,6,6,5,,
,7-4[8:1],7,8,3,3,4,45,
,8,1,8,27,,2b/7b,,
8h[4:1],,1h[4:1],,2h[2:1],7h[8:3],,,
,2^5[8:1],2,1,1,8,7,,
,7^4[8:1],7,8,8,1,2,,
,4,5,46,12,,7b/8b,,
8h[4:1],,1h[4:1],,2h[2:1],7h[8:3],,,
,2-5[8:1],2,1,1,2^5[8:1],,,
,7-4[8:1],7,8,8,7^2[8:1],,,
,4,35,46,78,,12,,

(155.35){16}
1b/7b,,27,,8,,7,,6,6,,7,,,8,,
1,,,2,,,1,,,2,,,1,,,,
7,,6,,7,,6,,2,3,,2,,,3,,
28,,,17,,,28,,,17,,,2b/8b,,46,,
{1}
3h[4:3]/7h[4:3],

,,,
E

名前:
コメント:

タグ:

+ タグ編集
  • タグ:

このサイトはreCAPTCHAによって保護されており、Googleの プライバシーポリシー利用規約 が適用されます。

最終更新:2022年06月25日 18:12