ヘビーローテーション

BPM EASY BASIC ADVANCED EXPERT MASTER
178 1 3 6 7 9

EASY


BASIC


ADVANCED


EXPERT


MASTER

(178){4}
4,,4,,
3,2,1,18,
{8}
2-5[8:1],,,6,6,,,7,
7,,,6,,3,,,
2-7[8:1],,,8,8,,,1,
,8,27,,12,,7-2[4:1]/8,,

,,,,{16}4,3,4,3,{4}4,
8^5[8:1],,2^5[8:1],2-5[4:1],
,,{16}6,5,6,5,{4}6,
8^5[8:1],,2^5[8:1],5-8[4:1],
,,{16}8,7,8,,2,1,2,,
4,3,4,,{4},78,67,
56,,26,,
48,,26,5^2[8:1],
,4^7[8:1]/2,,5^2[8:1]/7,
,1^6[8:1],,2,
{16}5,6,5,4,5,,,,3,4,3,2,{4}3,
12,,,4,
5h[2:1],4,3h[2:1],6,
7h[2:1],2,,4-1[2:1]/5-8[2:1],

,,,,
3,4,3,4,
3h[4:7],4,5,6,
7,8,1,2,
6h[4:7],5,4,3,
2,1,8,7,
12,56,34,78,
{8}7,8,7,1b/8b,,,45,,

3,,8,,6,,1,,
16,,7,1,,,18,,
2,,5,,7,,4,,
47,,7,5,,,45,,
7,,3h[4:1],,1,,5h[4:1],,
6,,7,,2,8,1,,
6,,7,,3,8,1,,
5,,6,,3,7,1,,
3,,8,,7,,5,,
25,,7,8,,,16,,
2,,5,,6,,1,,
38,,5,6,,,47,,
{4}
7,3h[4:1],2,6h[4:1],
3,7h[4:1],6,2,
2-5[8:1],,7-4[8:1],,
45,36,27,5-8[2:1]/4,

,,{16}4,5,4,5,{4}4-1[2:1],
,,{16}5,4,5,4,{4}5-8[2:1],
,,{16}4,5,4,5,{4}4-1[2:1],
,,,18,
37,26,46,35,
37,26,17,28,
{8}1,2,1,2,7,8,7,8,
{4}7,2b/7b,78,18,

2h[4:3]/8,1,8,7,
6^3[4:1],,2,18,
7h[4:3]/1,8,1,2,
3^8[4:1],,7,81,
2h[4:3]/7,8,7,6,
26,37,4,5,
18,36,18,36,
{8}1h[4:3]/5,6,5,6,5,6,5,6,
{4}1h[4:1],3,8h[4:1],6,
56,34,1h[4:1],3,
8h[4:1],6,1h[4:1],3,
43,65,8h[4:1],6,
56,34,56,4-1[4:3]/5-8[4:3],
,,,,
{16}1,2,1,2,1,,,,7,8,7,8,{4}7,
45,36,27,8-3[4:1]/1,
,7-4[4:1],,5-2[4:1],
,1,,8-3[4:1],
,1-6[4:1],,3^8[4:1]/7^4[4:1],
,,5,4,
56,34,78,12,
17,28,2,2,
3,3-8[8:1],6,6-1[8:1],
2,2-5[8:1],7,7-4[8:1],
3,78,3,78,
6,12,6,12,
23,45,67,1^4[2:1]/8^5[2:1],
,,,,
{8}
7,1,6,2,2,8,3,7,
1,,27,,8,1,3,,
{1}
1b/8b,

,,,
E

名前:
コメント:

タグ:

+ タグ編集
  • タグ:

このサイトはreCAPTCHAによって保護されており、Googleの プライバシーポリシー利用規約 が適用されます。

最終更新:2013年10月17日 01:08