Triple Journey(創作譜面:Bluish_eLvis)

曲名 Triple Journey
制作者名 Bluish eLvis
音源 GITADORA
jubeat saucer
DanceDanceRevolution 2013
譜面動画
制作者コメント ただいま。
BPM EASY BASIC ADVANCED EXPERT MASTER
185-200-192 - - 7 9 12

EASY


BASIC


ADVANCED - OJ EDITION

Triple Journey ┃ OJ GITADOROCK Ver.
肥塚良彦 @ Triumvirate
(185)
{16}4,5,,4,5,,2,6,,3,7,,18,,,,
{8}45,,45,,,6,8,2h[8:7],{1},
{8}34,,34,,,3,1,7h[8:7],{1},
{8}23,,23,,,4,8,3h[8:5],{4},,4,5,
{16}6,,,7,,,8,,1,,,2,,,{4}3h[8:5],,,{8}45,,,
{8}1,,1,5,,4,,3,{1},
{8}8,,8,4,,7,,3,{2},{4},
{8},1h[4:1],,8,1,7,,4,3,2,,7,1,3,,2,8,6h[8:3],,,,5,6,7,8,1h[8:7],{1},
{8}7,,7,6,,7,8,1,,3,{4},,,
{8}2,1,8,7,,,2,4,,8,{4},,,
{8}8,,8,1,,1,2,,2,3,,3,{4}4^7[4:1],,
{4}4h[4:2],,{8},5,6,7^4[4:1],{1},
{8}2,,2,3,,3,1,,1,7,,7,5,6,5,,
8-3[8:1],,,7-4[8:1],,,3,6,,18,{4},,,
{8}7,,7,8,,8,1,,1,2-6[8:1],,,2^7[4:1],,,,
{4}1h[2:1],,{8},6,7,8-4[4:1],{1},
{8}7,3,6,2h[8:3],,6h[8:9],,3h[8:7],{1},
{8}5,1,4,8h[8:3],,4h[8:9],,1h[8:7],{1},
{8}3,7,4,8h[8:3],,3h[8:9],,7h[8:7],{1},
{8}5,,5,4,,4,3,,3,2,,2,{4}1,1b,
{8}8,7,6,7,,6,5,4,,3,3,,{16}3,,,2,,,1,,
{8}8,7,6,7,,6,5,1,,1,2,3,,3,2,,
{8}7,,7,2,,2,6,,6,3,,3,6-1[8:1],,3-8[8:1],,
{8}45,,,36,,36,,27,,27,27,,8,1,2,3,
{8}4h[8:1],,4,{4}5,5,6,5,4,{8}4,6,,
5h[8:1],,5,{4}4,3,2,3,2,{8}2,1,,
1h[8:1],,8,{4}4,5,6,3,7,{8}2,1,8,
1,1,2,2,3,3,5,5,{2}4h[2:1],3h[2:1],
{8}5,,5,{4}6,7,8,7,6,{8}6,7,,
{8}4,,4,{4}3,2,8h[4:1],2h[4:1],4h[4:1],6h[4:1],{8},
7h[4:1],,2,{4}1,3,{1}3h[8:9],{8},
{4}4h[8:1],3h[8:1],2h[8:1],1h[8:1],8h[8:1],7h[8:1],2h[8:1],1h[8:1],{1}8h[1:3],2b,4b,
{8}6,6,6,1b/6,{2},
{8}1,,1,5,,4,,3,{1},
{8}8,,8,4,,7,,3,{2},{4},
{8},1h[4:1],,8,1,7,,4,3,2,,7,1,3,,2,8,6h[8:3],,,,5,6,7,8,1h[8:25],
{1},,,8b,
,,,
E

EXPERT - S-C-U EDITION

Triple Journey ┃ S-C-U jubeat EDITION
佐伯茂治 @ Triumvirate
(200)
{8}45,45,45,,,6,8,2h[1:1],{4},1,3,5,
{8}36,36,36,,,5,3,1h[1:1],{4},7,5,3,
{8}27,27,27,,,6,1,7h[1:1],{4},8,2,4,
{16}3h[16:3],,,7h[16:3],,,1h[8:1],,8h[16:3],,,2h[16:3],,,{8}6h[8:5],,,,,,8b/3b,,,
{8}1,5,8,4,7,36,25,14,{1},
{8}8,4,1,5,2,36,47,58,{2},{4}5-8[8:1]/4-1[8:1],{8},
1h[4:1],,8,2,6,,4,3,2,,1,7,5,,6,8,2h[4:1],,,,4,5,6,7,8h[8:7],{1},

{8}1,5,1,3,,6,7,8,,6,,5,4,3,2,1,
8,7,6,5,,4,1,3,,2,,5,8,7,6,5,
1-4[8:1],,1,7^4[8:1],,7,8-4[8:1],,8,2^7[8:1],,2,{4}3^6[8:1],3,
{16}8,,,4,,,{8}26,,8,4,{1}1^6[4:1],{8},
8,4,8,1,5,1,8,7,6,5,4,3,2,3,4,5,
1,7,3,5,4,6,2,8,,2b/7b,,5-8[8:1],1-4[8:1],,,,
2,5,3,6,4,7,5,8,4,7,3,6,2,3,2,1,8h[2:1],,,,,5,7,{1}1^4[4:1],{8},
1,3,5,7h[1:1],,6,5,4,,5,5,,{16}5,,,4,,,{8}3,
8,6,4,2h[1:1],,3,4,5,,4,5,6,,6,7,,
7h[1:1],,1,3,,3,4,3,{4},35,24,35,
{8}4,,4,2,,2,6,,6,8,,8,3b/5,,7b/1,,
8,6,4,2h[1:1],,3,4,5,,4,4,,{16}4,,,5,,,{8}6,
7,5,3,1h[1:1],,3,5,7,,7,6,5,,6,7,,
8h[4:1],2,6,1h[4:1],7,3,7h[4:1],3,5,2h[4:1],6,4,8,5,1,4,
36,36,,27,,27,,18,,15,84,,2,7,3,6,

{16}7h[8:1],,,8h[8:1],,,1h[8:1],,,2h[8:1],,,{4}7^2[8:1],{16}3h[8:1],,,4h[8:1],,,5h[8:1],,,6h[8:1],,,{4}3^6[8:1],
{16}7h[8:1],,,3,6,,2,,4,2,,3,1,,4,,7,,5,7,,6,8,,5,2,,4,{4}3,
{16}1h[8:1],,6,1,,,3h[8:1],,7,3,,,{4}2b,
{16}7-3[8:1],,,7h[8:1],,,8-4[8:1],,,8h[8:1],,,{4}6b,
8-3[4:1],2-5[4:1],4-7[4:1],6-1[4:1],
{8}3-8[4:1],5-2[4:1],,,7-4[4:1],1-6[4:1],,,
{16}6h[8:1],,,,5h[8:1],,4h[8:1],,,3h[8:1],,,{4}3^6[8:1],{16}2h[8:1],,,1h[8:1],,,8h[8:1],,,7h[8:1],,,{4}7^2[8:1],
{16}4h[8:1],,,6,4,,3,,5,3,,4,2,,4,,7,,4,6,,4,7,,4,7,,4,{4}8,
{8}6,6,7,6,,5,,5h[1:1],{1},
{4}6-3[8:1],4-1[8:1],2-7[8:1],8-5[8:1],7-2[8:1],1-4[8:1],3-6[4:1],,
{8}6h[8:7]/7,7,7,7,7,7,7,7h[1:1],5,5,5,5,5,5,5,5h[1:1],3,3,3,3,3,3,3,3h[1:1],1,1,1,1,1,1,1,1b,
{8}1,5,8,4,7,36,25,14,{1},
{8}8,4,1,5,2,36,47,58,{2},{4}5-8[8:1]/4-1[8:1],{8},
1h[4:1],,8,2,6^1[4:1],,4,3,2,,1,7,5,,6,8,2h[4:1],,,,4,5,6,7,8h[8:7],{1},
{8}2^7[8:1]/6^3[8:1],,,7-3[8:1],,,1^6[8:1]/7^4[8:1],,
,4^7[8:1]/5^2[8:1],,,,,,,
{1},,
E

MASTER - TAG EDITION

Triple Journey ┃ TAG overground DDR mix
田口康裕 @ Triumvirate
(96)
{16}4h[16:3],5,,5,4,6,8,2h[2:1],{8}1^6[8:1],6^3[8:1],{4},
{16}3h[16:3],4,,4,5,3,1,7h[2:1],{8}8^3[8:1],3^6[8:1],{4},
{16}2h[16:3],3,,3,2,4,8,3h[16:5],{8}2^7[8:1],7^4[8:1],4,5,
{32}6h[16:1],,,7h[16:1],,,8h[8:1],,1h[16:1],,,2h[16:1],,,{8}3h[16:5],,,{16}4b/5b,,,
(192){8}1b,5,1,4,5,6,7,8,{16}4,,8b,4,8b,5,8b,4,8b,3,5,,67,,,,
{8}8,4,8,5,4,3,2,1,{16}8,8,3,3,6,1,1,6,5,6,7,8,1b,,
{8}7h[8:3],5,2h[4:1],1,4,5,6,7,8h[2:1],4,2,1,7h[2:1],6,8,2,4h[2:1],8,8b,8b,8b,{16}4b,8,3,7,2,6,{4}1b,,{8},1-4[8:1],,,,
{8}1,5,14,2,5,7,48,1,5,3,24,3,5,6,75,{16}6,8,{8}1,8,73,6,4,5,14,2,5,8,17,6,5,4,{16}5,4,6,7,
{8}8,5,86,7,3,7,68,4,6,3,47,5,3,1,{16}73,4,5,6,{8}7h[4:3],6,5,4,3,4,5,6h[4:1],7,8,{16}1,8,{8}7h[2:1],3,3,3,3,
1,5,14,2,3,2,16,8,7,6,51,4,5,6,{16}5,4,3,2,{8}1,8,71,5,4,3,27,6,4,1,35,{16}4,3,2,1,8,7,6,5,4,3,
{8}2,5,24,1,3,1,82,6,8,7,68,5,{16}1,2,1,8,7,6,5,6,{8}5h[2:1],,,,,4,3,2,1-5[8:1],1,{16}8-4[8:1],1,{8}2,2-6[8:1],2,7-3[8:1],7,
1,8,7,8h[2:1],7,6,5,5h[2:1],4,3,3h[2:1],,{16}4,,,2,,,{8}1,
8,1,2,1h[2:1],2,3,4,4h[2:1],7,7,6,5h[2:1],4,4,3,3,
1h[4:1],,8h[4:1],5h[4:1],,4,6,4h[2:1],,,{4}5-8[8:1],8-5[8:1],5-8[8:1],{8}8b/5,85,8/5b,1b/4,14,1/4b,2b/3,23,2/3b,6b/7,67,6/7b,8b/5,85,8/5b,85,
8b,1,2,1h[2:1],2,3,4,4h[2:1],5,6,6h[2:1],,{16}5,,,7,,,{8}8,
1,8,7,8h[2:1],7,6,5,1h[2:1],8,7,6,5h[2:1],6,7,7h[4:1],,
8-4[8:1],4,8,2-6[8:1],6,2,4-8[8:1],8,4,6-2[8:1],2-7[2:1],6,2-5[4:1],,,,
5b/7,57,5/7b,4b/8,48,4/8b,48,1b/3b,,2b/7b,8b/4b,,1,7,5b,3,
(384){8}
7-3[4:1],,5,5,7,,8-4[4:1],,3,3,1-5[4:1],,6,6,2-6[4:1],,4,4,1-5[4:1],,7,7,8-4[4:1],,1,1,7-3[4:1],,{2}7^2[4:1],{8}
3-7[4:1],,8,8,3,,4-8[4:1],,3,3,5-1[4:1],,7,7,6-2[4:1],,2,2,5-1[4:1],,6,6,4-8[4:1],,8,8,3-7[4:1],,{2}3^6[4:1],{8}
1-5[4:1],,7,7,1,,2-6[4:1],,8,8,3-7[4:1],,6,6,4-8[4:1],,2,2,5-1[4:1],,7,7,6-2[4:1],,1,1,7-3[4:1],,{2}8-4[4:1],{8}
4,8,3,7,2,6,1,5,8,4,1,5,2,6,3,7,4,5,6,7,8,1,2,3,4,3,2,1,8,7,6,5,
4-8[4:1],,7,7,4,,3-7[4:1],,8,8,2-6[4:1],,3,3,1-5[4:1],,4,4,2-6[4:1],,1,1,3-7[4:1],,6,5,4-8[4:1],3,1^4[4:1],8,7,6,
5-1[4:1],,3,3,5,,6-2[4:1],,4,4,7-3[4:1],,1,1,8-4[4:1],,5,5,7-3[4:1],,7,7,6-2[4:1],,3,4,5-1[4:1],6,8^5[4:1],1,2,3,
4-1[4:1],,6,6,4,,2-7[4:1],,2,2,6-3[4:1],,5,5,{2}8-5[4:1],5^2[2:1],2^7[2:1],7^4[2:1],{4}4^1[3:1],
2^7[3:1],8^5[3:1],6^3[3:1],4^1[3:1],2^7[3:1],8^5[3:1],6^3[3:1],
3^6[3:1],5^8[3:1],7^2[3:1],1^4[3:1],3^6[3:1],5^8[3:1],7^2[3:1],1^4[3:1],3,
{8}4b,3,2,1,8,7,6,5,4,3,2,1,8,7,6,5,4b,5,6,7,8,1,2,3,4,5,6,7,8,1,2,3,
{16}4^1[8:1]/8b,7,6,5,{8}1b,8,7,6,5,4,{16}5^8[8:1]/1b,2,3,4,{8}8b,1,2,3,4,5,
6b,2,5,1b,4,8,3b,7,4,37,48,51,62,37,48,51,
(192){8}8,4,8,5,4,3,2,1,{16}5,,1b,5,1b,4,1b,5,1b,6,5,,23,,,,
{8}1,5,1,4,5,6,7,8,{16}1,1,6,6,3,8,8,3,4,3,2,1,8b,,
{8}2h[8:3],4,7h[4:1],8,5,4,3,2,1h[2:1],5,7,8,2h[2:1],3,1,7,5h[2:1],1,1,1,1,{16}5,1,6,2,7,3,{4}8b,,{8},8-5[8:1],,,,
{16}1,5,1,5,2,6,2,6,3,7,3,7,4,8,4,8,1,5,2,6,3,7,4,8,15,26,37,48,15,26,37,48,
{1}1b/5b,
,
E


名前:
コメント:

タグ:

+ タグ編集
  • タグ:

このサイトはreCAPTCHAによって保護されており、Googleの プライバシーポリシー利用規約 が適用されます。

最終更新:2013年12月07日 15:10