DADDY MULK -Groove remix-

BPM EASY BASIC ADVANCED EXPERT MASTER
154 2 4 6 9 11

EASY


BASIC


ADVANCED


EXPERT

(154)
{1},,,,,
{8},,,,,,,1h[8:15],
{1},,
{4}1,1,8,8,7,7,6,6,
{8},1,1,,2,,,,1,,,8,,,,,
{4}8,8,1,1,2,2,3,3,1,8,7,,1h[4:1],3h[4:1],5h[4:1],7h[4:1],
{8}1,,2,1,,8,,,7,,7,6h[8:3],,,,,
5,,4,5,,6,,,7,7,,8h[8:3],,,,,
1,1,,,,8,7,6,5,4,,,,,,,
2,2,,,,3,4,5,6,7,,,,,,,
8,8,6,6,,,2,2,4,4,,1,8,7,6,,
4,4,2,2,,,5,5,7,7,,7,5,3,1,,
7-3[8:1],,,8-4[8:1],,,1-5[8:1],,,6,5,4,3,2h[8:3],,,
1-5[8:1],,,8-4[8:1],,,7-3[8:1],,,2,4,6,8,2h[8:3],,,
8b,8,8,8,1,1,1,1,7/8,7,8,7,1/2,2,1,2,
3/4,3,5/6,6,3/4,3,{16}5/6,,6,5,
{16}6,,3,4,3,,6,5,6,,3,4,3,,6,5,
6,,3,4,3,,6,5,6,,3,4,3,,5,,
{8}6,7,8,1,2,3,4,{16}6,5,
{16}6,,6,5,6,,3,4,3,,3,4,3,,6,5,
{8}6,3,4,5,6,7,8,1,
1,3,2,2,8,6,7,7,1,2,1,8,7,8,1,{16}7,8,
7,,2,1,2,,7,8,7,,2,1,2,,7,8,
7,,2,1,2,,7,8,7,,2,1,2,,2,,
{8}1,8,7,6,5,4,3,2,1,1,2,3,4,5,6,7,
8h[4:1],,1,1,3h[4:1],,4,4,1h[4:1],,8,8,6h[4:1],,5,5,
7,8,7,7,4,3,4,4,7,8,7,7,4,3,4,4,
5,6,7,7,5,4,3,2,1,2,3,4,5,6,7-4[8:1],7,
,,3-8[8:1],3,,,6-1[8:1],6,,,2-5[8:1],2,,,6,6,
3,4,3,2,3,4,3,3,6,5,6,7,6,5,6,6,
2,2,7,7,1,1,8,8,
{16}1,8,1,8,1,8,1,8,1,8,1,8,1,8,1h[8:5],,
{8},,,,8,1,8,8h[8:3],,,,,8,7,8,1h[8:3],
,,,,2,3,2,1h[4:1],,8,8,7,7,6,6,5h[8:3],
,,,,6,7,8,1h[8:3],,,,,4,3,2,1h[8:3],
,,,,3,4,5,6h[4:1],,5,5,3,3,1,1,8h[8:3],
,,,,1,2,1,8h[4:1],,7,6,7,1,2,3,4h[4:1],
,2,1,8,7,6,7,8h[4:1],,7,6,5,4,3,2,1h[8:3],
,,,,8,7,8,1h[4:1],,2,3,2,8,7,6,5h[4:1],
,4,3,4,5,6,7,8h[4:1],,1,1,3,3,5,5,7h[4:1],
,6,6,4,4,2h[4:1],,3,3,5,5,7h[4:1],,,,,
,6,5,4,3,2h[4:1],,4,5,6,7,8h[4:1],,,,8b,
{1} ,,,
E

MASTER

(154){4}
,1,,1,
,8,,8,
,34,,34,
,56,,56,
7,8,1,2,
3,4,5,{8}6-1[4:6],6h[8:13],
{1}
,
,

{16}
8,,,,2,7,1,,34,,56,,,,3,,
2,,1,,8,,7,,6,,5,,27,,18,,
5,,1,,4,8,4,,7-2[8:1],,,,3,3,3,,
48,,37,,26,,15,,,,1,8,1,8,1,8,
1,,,,7,1,8,,2,,5h[8:3],,,,6,,
4,,7,,8,,1,,2,1,2,,7,,8,,
2,1,3,,6,5,7,,3,4,2,,7,8,6,,
2,1,3,7,8,6,3,4,2,6,5,7,1,8,2,7,

4,,2,,8,,6,,,,2,4,2,,7,,
5-1[8:1],,6-2[8:1],,,,,,,,3,8,3,,6,,
3,,5,,7,,1,,,,8,2,6,,4,,
3-7[8:1],,4-8[8:1],,,,,,,,2,,1,,,,
78,,34,,1,,2,,3,,5,4,5,,4,,
7,6,7,,1-5[8:1],,6,,8-4[8:1],,3,,,,,,
21,,65,,8,,7,,6,,4,5,4,,5,,
2,3,2,,8-4[8:1],,3,,1-5[8:1],,6,,,,,,

7,,3,,6,,2,,1,5,3,,37,,5,1,
7,,37,,2,6,4,,8,4,6,2,8,,,,
3,,24,,7,,68,,2,6,4,,35,,4,8,
2,,13,,2,6,4,,5,3,7,1,8,,,,
3,,2,,1,,8h[8:3],,1,,2,,3,,6,5,
6,,5,7,5,,8,2,6,,34,,12,,,,
6,,7,,8,,1h[8:3],,8,,7,,6,,3,4,
3,,4,2,4,,1,7,3,,65,,87,,,,

1,,1,,6,,6,,3,,3,,2,,2,,
7,8,6,8,7,,3,,4,3,5,3,4,,1,,
6,5,6,,5,4,5,,4,3,4,,1,8,2,7,
1,,2,1,3,,7,8,6,,4,8,3,,5,1,
6,,2,1,2,,7,8,7,,3,5,3,6,3,,
7,8,7,,8,1,8,,1,2,1,,4,5,4,,
2,,1,4,3,,8,5,6,,3,1,2,,6,,
28,,2,,5,,5,,57,,8,,1,,4,,
2,1,3,8,5,,6,,7,8,6,1,4,,3,,
1,5,2,6,3,7,4,8,2,6,4,8,1,,8,1,
8,,2,3,2,,5,4,5,,7,6,7,,2,1,
2,,6,5,6,,8,7,8,,4,3,4,1,8,,
1,4,2,,78,,45,,4,5,4,,78,,3,4,
1,,6,5,8,,4,5,4,,7,8,7,1,7,2,
6,3,6,,3,,6,,3,6,3,,6,,3,,
5,4,5,,4,,5,,4,5,4,,5,,4,,
7,8,6,,5,6,3,,4,3,1,,2,1,8,,
2,1,3,,4,3,6,,5,6,8,,7,8,1,,
68,,7,,13,,2,,46,,5,,24,,3,,
6,5,6,,56,,56,,3,4,3,,34,,34,,
2,8,1,7,68,,68,,6,4,5,3,24,,24,,
3,4,2,4,35,,35,,6,5,7,5,46,,46,,
{12}
3,4,5,7,6,5,2,3,4,6,5,4,
2,3,4,1,8,7,5,4,3,18,,,
{16}
5,6,5,6,4,7,4,7,3,8,3,8,2,1,2,1,
3,7,2,6,1,5,8,4,2,6,4,8,1,8,2h[8:3],,

{8}
,,,,4-1[8:1],6-1[8:1],4,6,
,48,15,26,5-8[8:1],3-8[8:1],5,3,
,51,84,73,4-8[8:1],5-1[8:1],4,5,
,{16}3,4,2,,6,5,7,,2,1,{8}3,7,
,12,,78,4-7[8:1],4-1[8:1],4,4,
,78,56,34,5-2[8:1],5-8[8:1],5,5,
,21,43,65,3-7[8:1],5-1[8:1],3,5,
,{16}5,4,6,,4,5,3,,6,4,{8}5,3,
,,,,36,4-1[8:1]/5-8[8:1],27,,
,12,38,12,47,5-2[8:1]/6-1[8:1],38,,
,78,16,78,52,4-7[8:1]/3-8[8:1],61,,
,1,1,3,3,5,5,7h[8:3],
,,,,26,3-8[8:1]/7-4[8:1],15,,
,15,26,37,48,1-6[8:1]/5-2[8:1],37,,
,37,48,15,5-2[8:1],1-5[8:1],,,
,7,8,1,5,4,3,26,
,{16}3,4,2,,8,,6,,4,,,,6,5,
7,,1,,3,,5,,,,,,,,,,
,,3,5,4-8[8:1],,1-5[8:1],,,,,,,,7,1,
8-4[8:1],,5-1[8:1],,,,,,6,,7,,8,,1b/2b,,
{1},,,
E

名前:
コメント:

タグ:

+ タグ編集
  • タグ:

このサイトはreCAPTCHAによって保護されており、Googleの プライバシーポリシー利用規約 が適用されます。

最終更新:2014年03月28日 22:58