弱虫モンブラン

アーティスト DECO*27

BPM EASY BASIC ADVANCED EXPERT MASTER
120 2 4 6 10+ 12

EASY

(120)
{1}1,,2,
{2}
,,1,,1,
,8,,8,,
{4}
7,,7,,
7,,,,
6,,6,,
6,,,5-8[4:3],
,,,
{1},,8h[1:1],

{2},
7,7,6,6,
7,7,8,8,
1,1,2,2,
1,1,8,8,
7-2[1:1],
{1},,,
1,2,1,8,8b,

{2},
2,2,3,3,
2,2,1,1,
8,8,7,7,
8,8,1,1,
{4}
2,2,,3,3,
,2,,2,,
,1,,1,,
8,8,,7,7,
{2}
8,8,
1,1,
2-7[1:1],,,,
8-5[1:1],
{1},,,,,,
E

BASIC

(120.0){1},,,,,
{2}6h[4:1],5h[4:1],
{2}4h[4:1],3h[4:1],
{2}3h[4:1],4h[4:1],
{4}5h[4:1],,6,6,
{4},7,,7,
{4},8,,8,
{4},1,,1,
{4},2,,2,
{2}2h[4:1],2,
{2}4h[4:1],4,
{2}6h[4:1],6,
{2}8h[4:1],8,
{4}7h[4:1],,7,7,
{4}5h[4:1],,5,5,
{4}3h[4:1],,3,3,
{4}1h[4:1],,1,1,
{1}1h[2:1],
{1}8h[2:1],
{1}7h[2:1],
{4}7,7,7,7b,
{4},8,,1,
{4},2,,1/2,
{4},1,,8,
{4},7,,6/7,
{4},7,,6,
{4},5,,4/5,
{4},5,,4,
{4},3,,2-5[2:1],{1},,
{1}7-4[2:1],,
{1}2h[2:1],
{1}4h[2:1],
{1}6h[2:1],
{1}8-4[2:1],,
{4},,,6,
{4},5/6,,5,
{4},4/5,,4,
{4},3/4,,3,
{4}3,3,,3,
{4},3/4,,4,
{4},4/5,,5,
{4},5/6,,6,
{4}6,6,,7,
{4},7/8,,8,
{4},1/8,,1,
{4},1/2,,2,
{4}2,2,,2,
{4},1/2,,1,
{4},1/8,,8,
{4},7/8,,7,
{4}7,7,{2}7h[4:5],{1},
{2}1h[4:1],{1}8h[1:2],,,
E

ADVANCED

(120.0){1},
{4}8,8,7,,
{4}7,7,6,,
{4}6,6,5,,
{1}5-8[8:3],
{4}1,1,2,,
{4}3,3,4,,
{4}5,6,5/6,,
{1}4^1[8:3],
{4}8,8,7,,
{2}7h[2:1],8,
{4}6,6,5,,
{1}4^7[8:3],
{8}8,8,8,,1,,,,
{4}8,1,1/8,,
{8}1,1,1,,2,,,,
{1}4-8[8:3],
{4}7,7,6,6,
{4}5/6,4/6,5/6,,
{4}4,4,3,3,
{4}3/4,3/5,3/4,3,
{4},8,8,8,
{4}8,,1,1,
{4}1,8,8,8,
{4}7,6,4/5,3b/4b,
{4}1,2,1/2,1/8,
{2}7/8,7-4[8:3]/8-3[8:3],
{4},,4,4,
{4}3,3,2,1,
{4}8,8,7,7,
{2}7b/8b,6^3[8:3],
{4},,2,2,
{4}1,1,8,1-4[8:3],{1},
{4}3,2,1,,
{4}1,8,7,,
{4}7,6,5,,
{4}4,6,4,,
{4}5,3,5,,
{2}1/2,1-6[3121:1975]/8-3[8:5],{1},,
{4},,4,4,
{4}3,3,3/4,,
{8}5,5,5,,6,,,,
{8}7,7,7,,8,,8^3[8:3],,
{4},,2,2,
{4}3,3,1/2,,
{8}1,1,1,,8,,,,
{8}7,7,7,,8,,1-5[8:3],,
{4},,4,5,
{4}4,5,3/4,,
{8}5,5,5,,6,,,,
{8}7,7,7,,8h[4:1],,1,,
{4}1h[4:1],2,8,8,
{4}7,7,7/8,,
{8}1,1,1,,2,,,,
{8}3,3,3,,4,,5,,
{4}5h[1:2],4,{2}3h[1:4],{1},
{2},{1}6h[1:2],,,
E

EXPERT

(120.0){1},
{8}1,1,,,3,3,,,
{8}5,5,,,7,7,,,
{8}8,8,,,6,6,,,
{8}4,4,,,2,2,,,
{8}1,1/2,,,3,3/4,,,
{8}5,5/6,,,7,7/8,,,
{8}8,7/8,,,6,5/6,,,
{4}3h[4:3],1,7,5,
{4}7h[4:1],5,3h[4:1],1,
{8}6h[4:1],,4,,2h[4:1],8,8,,
{4}5h[4:1],7,1h[4:1],3,
{8}8h[4:1],,6,,4h[4:1],2,2,,
{4}7,8,1,2,
{4}3h[4:3],4,4,4,
{4}2,1,8,7,
{4}6h[4:3],5,5,5,
{4}7h[4:1],8,1,2,
{4}3h[4:3],5,5,5,
{4}2h[4:1],1,8,7,
{4}6h[4:3],4,4,4b,
{2}2h[2:1],8h[2:1],
{2}5h[2:1],7h[2:1],
{2}3h[2:1],6h[4:5],
{4}8,8-5[4:1],,,
{4}8^3[4:1],7,6,5,
{4}4^7[4:1],3,2,1,
{4}2^7[4:1],3,4,5,
{4}6h[4:3],5,5,5,
{4}1^6[4:1],2,3,4,
{4}5^2[4:1],6,7,8,
{4}7^2[4:1],6,5,4,
{4}3h[4:3],1,2,4,
{2}5h[1:1],4,
{2}4h[1:1],5,
{2}6h[1:1],5,
{2}3h[2:1],4,
{4}1,2,3,4,
{4}5,6,7,8,
{4}1,,8,8h[4:1],
{4}7h[4:1],6h[4:1],{2}5,{1},
{4},5b,8^3[4:1],7,
{4}6,5,4^7[4:1],3,
{4}2,1,8^3[4:1],7,
{4}8^5[4:1],1,2^5[4:1],1,
{4}8h[4:1],7,1^6[4:1],2,
{4}3,4,5^2[4:1],6,
{4}7,8,1^6[4:1],2,
{4}1^4[4:1],8,7^4[4:1],8,
{8}1h[4:1],,2,,8,7,6,5,
{8}4,3,2^5[4:1],,,,,7,
{8}8,1,2,3,4,,,2,
{8}1,8,7,6,5h[4:1],,4h[4:1],,
{8}8h[4:1],,1,,1,2,3,4,
{8}5,6,7^4[4:1],,,,,2,
{8}1,8,7,6,5,,,7,
{8}8,1,2,3,4h[4:1],,5h[4:1],,
{4}1h[4:1],8,5^2[4:1],6,
{4}7,8,1^6[4:1],2,
{4}3,4,4^7[4:1],3,
{4}2,1,8^3[4:1],7,
{4}6,5,4b,
E

MASTER

(120){8}
12,12,,,78,78,,,
34,34,,,56,56,,,
28,28,,,17,17,,,
35,35,,,46,46,,,
13,13,,,24,24,,,
68,68,,,57,57,,,
18,27,,,45,36,,,
{4}
78,56,34,12,

{2}
7-4[8:1]/8,5-2[8:1]/6,
3-8[8:1]/4,1-6[8:1]/2,
7-4[8:1]/8,5-2[8:1]/6,
3-8[8:1]/4,1-6[8:1]/2,
{8}
3^6[8:1]/4,34,,,6^3[8:1]/5,65,,,
3^6[8:1]/4,23,,,6^3[8:1]/5,76,,,
3^6[8:1]/4,34,,,7^4[8:1]/6,76,,,
2^5[8:1]/3,12,,,6^3[8:1]/5,76,,,
2-5[8:1]/1,23,,,7-4[8:1]/8,76,,,
1-5[8:1]/5,,8-4[8:1]/1,,18,,,,
7-4[8:1]/8,76,,,2-5[8:1]/1,23,,,
8-4[8:1]/4,,1-5[8:1]/8,,8^3[8:1]/1,,,,

{2}
5h[4:1]/6h[4:1],4h[4:1]/3h[4:1],
4h[4:1]/6h[4:1],5h[4:1]/3h[4:1],
7h[4:1]/6h[4:1],2h[4:1]/3h[4:1],
{4}
45,67,1^4[8:1]/8^5[8:1],,

34,56,8^5[4:1]/1,5^2[4:1]/8,
,,{8}56,45,34,45,
{4}56,,56,45,
34,2^5[8:1]/3,6^3[8:1]/2,,
65,43,1^4[4:1]/8,4^7[4:1]/1,
,,{8}43,54,65,54,
{4}43,,43,54,
56,67,7-4[4:1]/8,8-3[4:1]/7,

,,,,
24,34,56,45,
75,65,43,54,
24,34,56,45,
{2}
4^7[8:1]/3,2^5[8:1]/1,
8^3[8:1]/7,6^1[8:1]/5,
34,7^4[8:1]/8,
1^6[8:1]/2,34,
,,
8-5[8:1]/5b,

{4}
5^2[4:1]/6,2^7[4:1]/5,,,
3^6[8:1]/4,37,6^3[8:1]/5,62,
2-6[8:1]/1,27,7-3[8:1]/8,72,
1-4[8:1]/2,1-6[8:1]/8,1-5[8:1]/2,18,
4^7[4:1]/3,7^2[4:1]/4,,,
2^7[8:1]/1,26,7^2[8:1]/8,73,
6-2[8:1]/5,63,3-7[8:1]/4,36,
8-5[8:1]/7,8-3[8:1]/1,8-4[8:1]/7,81,

2^5[8:1]/5^8[8:1],5-1[8:1]/2,,2^5[8:1]/8^5[8:1],
,,1^4[8:1]/4^7[8:1],4-1[8:1]/1-6[8:1],
,,4-8[8:1]/8,,
1-4[8:1]/3,1-6[8:1]/7,1-5[8:1]/3,17,
7^4[8:1]/4^1[8:1],4-8[8:1]/7,,7^4[8:1]/1^4[8:1],
,,8^5[8:1]/5^2[8:1],5-8[8:1]/8-3[8:1],
,,5-1[8:1]/1,,
8-5[8:1]/6,8-3[8:1]/2,8-4[8:1]/6,82,

{2}
7-4[8:1]/8,5-2[8:1]/6,
3-8[8:1]/4,1-6[8:1]/2,
7-4[8:1]/8,5-2[8:1]/6,
3-8[8:1]/4,1-6[8:1]/2,
{1}
7b/8b,
,
,
,
E

  • EASYはfirst=18.5あたりです。 -- 名無しさん (2015-03-03 20:49:32)
名前:
コメント:

タグ:

+ タグ編集
  • タグ:

このサイトはreCAPTCHAによって保護されており、Googleの プライバシーポリシー利用規約 が適用されます。

最終更新:2022年07月02日 22:28