sweet little sister

BPM EASY BASIC ADVANCED EXPERT MASTER Re:MASTER
168 2 4 6 9+ 12+ -

EXPERT MASTER Re:MASTER
譜面制作者 某S氏 mai-Star -

EASY

(168){1},,,,,,,,
1,1,2,2,1,1,8,8,
7-3[4:3],,2,,1h[1:1],,1,,
2-6[4:3],,7,,8,8,1,1b,,
1,1,2,2,3,3,4,4,
5,5,6,6,7,7,8,8b,
{4}
1,,,,,8,,,,,
1,,,,,8,,,,,
{1}
1,1,2,2,3,3,4,4/5,
5,5,6,6,7,7,8,1/8,8,8,
(175)7,7,
(176)6,6,5,
(177)4/5,
(181){2}4h[1:1],
(182),
(183){1},
(184)3h[1:1],
(185),
(186)2h[1:1],
(187),
(188)1h[1:1],
(189),
(190)8-5[4:5],,,,,E


BASIC

(168){1},,,,
{2}2,2,3,3,4,4,4/5,4/5,
{4}6,
6,,6,,5,,5,,4,,4,,3,,3,,
2,,2,,1,,1,,8,,8,,7,,7,
{1}
7-3[4:3],,2-6[4:3],,
8-5[4:3],,4-1[4:3],,
8,8,7h[1:1],,6,5,
{2}4,5,4/5,4b/5b,,,
{4}
2,,2,,3,3,3,,4,,4,,5,5,5,,
6,,6,,7,7,7,,8,,8,,1/8,,,,
7,,7,,6,6,6,,5,,5,,4,4,4,,
3,,3,,2,2,2,,1,,1,,1b/8b,,,,
1h[4:3],,,,,
8h[4:3],,,,,
2h[4:3],,,,,
7h[4:3],,,,,
{4}
1,,2,,3,3,3,,3,,4,,5,5,5,,
5,,6,,7,7,7,,7,,8,,1,1,1,,
8,,7,,6,6,6,,6,,5,,4,4,4,,
4,,3,,2,2,2,,2,,1,,8,8,8b,,
1/2,,1/2,,3,3,3,,

(175)3/4,,3/4,,5,5,5,,
(176)5/6,,5/6,,7,7,7,,7/8,,7/8,,
(177)1,1,1b,,
(181)1,,
(182)1,,
(183)8,8,8,,
(184)7,,7,,
(185)6,6,6,,
(186)5,,5,,
(187)4,4,4,,
(188)3,,3,,
(189)2,2,2b,,
(190)1,1,{1}1-5[4:5],,,,,E


ADVANCED

(168){2}
1,1,7/3,6/2,
8,8,2/6,3/7,
{4}
1/2,,7/8,,2,7,6,3,
3/4,,5/6,,1,8,2/7,,
1,,1/8,,2,3,2/3,,
5,,4/5,,5/7,6,3/5,4,
3,,2/3,,1,8,1/8,,
7,,6/7,,3/5,4,5/7,6b,,
1,,1,,8,,8,8-3[4:3],,,,,,,,,
2,,2,,3,,3,3-7[4:3],,,,,,,,,
1/3,,4/8,,6/8,,1/5,1^4[4:3]/5^8[4:3],,,,,,,,,
3,,3,,4,,4,5/6,,2/4,,7h[2:1],,8,,1/5,2/6,3/7,4b/8b,
5h[4:1],,3h[4:1],,4,5,6/7,,
2h[4:1],,8h[4:1],,7,6,4/5,,
4h[4:1],,6h[4:1],,5,4,3,,
2,2,6,6,4-1[4:1]/8-5[4:1],,,,
5h[4:1]/6h[4:1],,2h[4:1]/4h[4:1],,4,5,3/6,,2,2,8,8,7,6,5/6,,
3h[4:1]/4h[4:1],,5h[4:1]/7h[4:1],,5,4,3/6,,7,7,3,3,1-4[4:1]/5-8[4:1],,,,
3,3,3,3/4,,
7,7,7,7/8,,
6,6,6,5/6,,
2,2,2,1/2,,
3,4,3/4,,6,5,6/5,,7,8,7/8,,7,7,1,1,
6,5,6/5,,3,4,3/4,,2,1,1/2,,2,2,8,8b,
2,3,2/4,,6,5,4/6,,6,7,6/8,,1/2,2/3,3/4,4/5,
7,6,5/7,,3,4,3/5,,3,2,1/3,,1/8,7/8,6/7,5b/6b,
3h[2:1],,4,,7h[2:1],,6,,
(175)1h[2:1],,2,,1/2,3/8,4/7,5/6,
(176)6h[2:1],,4,,2h[2:1],,5,,
(177)8h[2:1],,6,,7/8,1/6,2/5,3b/4b,
(181)3h[2:1],,
(182)4h[2:1],,
(183)5,5,6,6,
(184)5h[2:1],,4h[2:1],,
(185)3,3,2,2,
(186)1h[2:1],,3h[2:1],,
(187)5,5,7,7,
(188)8h[2:1],,6h[2:1],,
(189)4,4,2,2b,
(190)1/8,1/8,{1}1>5[1:1]/8,,,,,E


EXPERT

(168){4}
2-5[4:1],,7,,8-4[4:1],,2,,
3<6[4:1],,7,,8<5[4:1],,2,,
2h[2:1],3,6h[2:1],5,1h[4:1],2,3/4,5/6,
7h[2:1],6,3h[2:1],4,8h[4:1],1,2b/7b,,
1/6,2,8/3,6,1h[4:1],3h[4:1],5h[4:1],7,
1/5,2,4/8,7,6/8,5/7,2/4,3/5,
6/1h[4:1],2,3/7h[4:1],6,2h[4:1],4h[4:1],6h[4:1],8,
2/8h[4:1],6,5/3h[4:1],1,4/8,2/6,3/7,1/5,
3-7[2:1],,,5,5-1[2:1],,,2,2p6[2:1],,,,5,5,6,6,
7-3[2:1],,,1,1-5[2:1],,,8,8z4[2:1],,,,1,1,2,2,
3-7[2:1],,,5,5-1[2:1],,,2,2q5[2:1],,,,7,7,8,8,
1h[1:1],2,3,4,5h[4:3],6,7,8,5/7,7,3/5,3,
8<4[4:1],,2h[4:5],,1b,7b,3b,5b,

7/5-1[8:1],,2/4-7[8:1],,6,5,4,3,
8/2-6[8:1],,3/8-4[8:1],,3,4,5/6,,
1/7-3[8:1],,6/1-5[8:1],,6,7,1,2,
4/3h[4:1],5,5/6h[4:1],2,7<4[4:1]/8>3[4:1],,,,
2/4-8[8:1],2,7/5-2[8:1],7,3,4,5,6,
1/7-3[8:1],1,6/1-5[8:1],6,8,7,6/5,,
8/2-6[8:1],8,3/8-4[8:1],3,2,1,7,6,
3/7,2,4/8,7,1>4[4:1]/5<8[4:1],,,,
{12}
4h[4:1],,,5h[4:1],,,7h[12:7],,,6,,6,,6,,
5h[4:1],,,4h[4:1],,,2h[12:7],,,3,,3,,3,,
4h[4:1],,,6h[4:1],,,8h[12:7],,,7,,7,,7,,
5h[4:1],,,3h[4:1],,,1h[12:7],,,2,,2,,2,,
{2}
2-5[8:1],6-3[8:1],1-3[8:1],5-7[8:1],2-7[8:1],6-1[8:1],2<3[2:1],,
7-4[8:1],3-6[8:1],8-6[8:1],4-2[8:1],7-2[8:1],3-8[8:1],7>6[2:1],,
{4}
1h[4:1],2,6h[4:1],5,2h[4:3],3,6,1,
8h[4:1],7,2h[4:1],3,1/7,8/6,7/5,6/4,
8h[4:1],7,3h[4:1],4,7h[4:3],6,3,8,
6h[4:1],5,2h[4:1],3,7/1,8/2,1/3,2b/4b,
2-5[16:3],2,7-4[16:3],7,
1-6[16:3],1,8-3[16:3],8,

(175)2,4,6,8,8/7,6/5,4/3,2/1,
(176)7q3[16:3],7,1p5[16:3],1,8q4[16:3],8,2p6[16:3],2,7,5,3,1,
(177)7/8,6/1,5/2,4b/3b,
(181)1/2-5[16:3],1,
(182)8/7-4[16:3],8,
(183)3/4,3/5,6/5,6/4,
(184)2/1-6[16:3],2,7/8-3[16:3],7,
(185)1/2,8/3,7/8,6/1,
(186)8/1-5[16:3],8,8/7-4[16:3],8,
(187)3/7,1/5,4/8,2/6,
(188)1/8-4[16:3],1,1/2-5[16:3],1,
(189)5b/1,3b/7,1b/5,2b/6,
(190){8}2,1,2,,6,5-1[1:1],6,
{1}5,,,,,E


MASTER

(168){2}1-5[8:1],8-4[8:1],2-5[8:1],7-4[8:1],
{8},2,,2,,5,,5,,7,,7,,4,,4,
{2}5-7[8:1],4-2[8:1],6-8[8:1],3-1[8:1],
{4}8-6[8:1],1-3[8:1],7-5[8:1],2-4[8:1],8-4[8:1],1-5[8:1],,,
1h[4:1],2h[4:1],3h[4:1],4h[4:1],5h[4:1],6h[4:1],7h[4:1],8,
8h[4:1],7h[4:1],6h[4:1],5h[4:1],4h[4:1],3h[4:1],2h[4:1],1,
{2}
1v2[8:1],5v6[8:1],3v4[8:1],7v8[8:1],
{4}
1-5[8:1],8-4[8:1],2-6[8:1],7-3[8:1],1^4[8:1],8^5[8:1],1-5[8:1],,,
7-4[8:1],1-3[8:1],5h[4:3],,3,3,1h[4:1],
{8}
7h[8:3],,,5h[8:3],,,8,,,,8,,1,2,{4}3,,
8q5[8:1],2,1p4[8:1],7,
8q6[8:1],2,1p3[8:1],7,,,1/2,,7/8,
{8}1,8,2/7,,
1-5[8:1],8/2,,,8-4[8:1],1/7,,,
2-6[8:1],1/3,,,7-3[8:1],8/6,,,
1-5[8:1],8/2,,,8-4[8:1],1/7,,,
2-6[8:1],1/3,,,7-3[8:1],8/6,,,
{4}
2-4[8:1],1-4[8:1],8-4[8:1],7-4[8:1],
1-4[8:1],7-4[8:1],8-4[8:1],,
{16}3,2,1,8,7,6,5,4,3,2,1,8,7,6,5,4,
{4}
3h[4:3],,7h[4:1],,1/5,7/3,8v6[8:1]/4v2[8:1],,
{8}
8^3[8:1],7,6,,4^7[8:1],3,2,,4,8,6,2,8,1,2/7,,6,8,1,3,2/4,{16}6,5,{8}6,5/7,4/5,4/5,3/4,3/4,5/6,,,,
1-3[8:1],7,5,,8-6[8:1],2,4,,3,7,5,1,8,1,2/7,,2h[4:2],3,4,5,7,{16}5,6,5,,4,,{4}5-1[8:1],,1b/2b,7b/8b,
{8}
1^6[8:1],2,3,,5^2[8:1],6,7,,5,1,3,7,1,8,2/7,,3,1,8,6,7/5,{16}3,4,{8}3,2/4,4/5,4/5,5/6,5/6,3/4,,,,
2-6[8:1],8,4,,7-3[8:1],1,5,,2,4,7,5,3,6,1/8,,3h[4:2],2,1,8,6,{16}8,7,{8}8,1,
{1}2b/7b,
{12}
3,4,3,6,5,6,3,4,3,6b/7b,,3b/4b,,1b/8b,,
3,4,2,6,5,7,3,6,3,1b/8b,,5b/6b,,3b/4b,,
2,4,3,7,5,6,2,7,2,6b/8b,,4b/5b,,1b/3b,,
2,8,1,7,1,8,4,5,4,3b/7b,,1b/5b,,2b/6b,,
{4}
2h[4:3],1,3,8h[1:1],7,1,6,3,3h[4:3],4,2,6h[4:3],5,7,4h[4:1],2,
8h[2:1],7,1h[2:1],2,8h[4:1],6h[4:1],4h[4:1],2,
1h[4:1],2h[4:1],5h[4:1],6h[4:1],7h[4:1],8h[4:1],3h[4:1],4,
2^4[8:1],5,6^8[8:1],1,
1-5[8:1],7,7-4[8:1],2,
5^7[8:1],4,3^1[8:1],8,
2-6[8:1],1-5[8:1],8-4[8:1],1,
1-5[8:1],1/8-4[8:1],8/2-5[8:1],2,
7-4[8:1],7/1-5[8:1],1/8-4[8:1],8,
1-3[8:1],1/7-5[8:1],7/4-8[8:1],4,
3/7,1s5[4:1],,,
3-7[8:1],1,5-1[8:1],3,
{8}2,2,8^3[8:1],7,6,,3/4,5/6,

(175),1,5,3,7,{16}1,6,{8}4,8,2^5[8:1],,6,7,{4}8^3[8:1],4,
(176)2q7[8:1],8,6^3[8:1],1,{8}8,1,8-4[8:1],1,8-5[8:1],,,7h[4:1],,5,2h[4:1],4,7,{16}1,8,{8}1,3/6,
(177){4}7-5[8:1],1-5[8:1],8-5[8:1],,
(181){8}2-6[8:1],1,8,7,
(182)6^1[8:1],5,4,3,
(183)2,8,4,6,1/5,,3/7,
(184)4^7[8:1]/8,,3,2,1,8/2,{16}1,6,{8}4,3/5,
(185)4/5,4/5,3/4,3/4,5/6,,1/8,,
(186)6^3[8:1],7,8,1,2q7[8:1],3,4,5,
(187)6,5,4,3,1/8,,1/2,7/8,
(188),7,5,3,1/7,{16}8,3,{8}5,4/6,
(189)1/5,3/7,2/6,4/8,1/2,5/7,2/5,7/8,
(190){4}2,1,8,{1}2>7[1:1]/5s1[1:1],,,,E

Re:MASTER


  • 下位を補完と共に既存分に修正を要する箇所があったため修正・差し替えを行いました。BPM変化に関しては紫のもので据え置きしてます。 -- Sea (2018-06-04 01:00:00)
名前:
コメント:

タグ:

+ タグ編集
  • タグ:

このサイトはreCAPTCHAによって保護されており、Googleの プライバシーポリシー利用規約 が適用されます。

最終更新:2021年05月02日 20:28