colorful channel(創作譜面:Bluish_eLvis)

曲名 colorful channel
制作者名 Bluish_eLvis
音源 Colorful Channel(PMS package "Colorful Canvas series)
Vocalosteps
http://www.nicovideo.jp/watch/sm9680550
http://www.nicovideo.jp/watch/sm16178525
譜面動画
制作者コメント A day is going to end again ... Good Night
BPM EASY BASIC ADVANCED EXPERT MASTER
134 - - - 10 11

EASY


BASIC


ADVANCED


EXPERT

(134){1}1h[1:1],7h[1:1],3h[1:1],6h[1:1],
{8}2h[1:1],5,,5,,4,,4,6h[1:1],5,,5,,4,,4,
4h[4:3],5,,5,,6,,6b,,6,{16}6,5,6,4,6,3,6,2,{4}6b,
{16}4,3,2,,1,,2,3,,3,2,,1,,3,,
,6,7,,8,,7,6,,6,7,,8,,6,,
,3,2,,1,,2,3,,3,2,,1,,3,,
,6,7,,8,,7,6,,6,7,,8,,6,,
3,,,3,,,2,,,2,,,3,,4,,
6,,,6,,,7,,,7,,,6,,5,,
3,,,3,,,2,,,2,,,3,,4,,
6,,,6,,,7,,,7,,,6,,5,,
{8}3,3,3,3,2,3,,1,,8,,7,,5,6,,
3,3,3,3,2,3,,1,,1,8,1,2,,3,,
6,6,6,6,7,6,,8,,1,,2,,4,3,2,
6,6,6,6,7,6,,8,,5,,1,,2,3,4h[8:5],
,,,,,3,1,7h[8:5],,,,,,6,4,2,
8h[4:1],,6,6h[8:1],,6,7,6,5h[4:1],,6,7h[4:1],,
8,2,4h[8:5],,,,,,2,8,6h[8:5],,,,,,
3,4,3,2<3[4:1],,,,,2,1,2,{1}3>2[4:1],
{4}7z3[4:1],,,1b/8b,
5-7[8:1],5-1[8:1],8-3[8:1],8-4[8:1],
5-8[8:1],5-2[8:1],1-3[8:1],1-4[8:1],
5-7[8:1],5-1[8:1],8-3[8:1],8-4[8:1],
5-8[8:1],5-2[8:1],1-3[8:1],1-4[8:1],
4/5h[8:1],3h[8:1]/4h[8:1],2h[8:1]/3h[8:1],3h[8:1]/4h[8:1],
4h[8:1]/5h[8:1],5h[8:1]/6h[8:1],6h[8:1]/7h[8:1],5h[8:1]/6h[8:1],
3h[8:1]/5h[8:1],5h[8:1]/7h[8:1],7h[8:1]/1h[8:1],1h[8:1]/3h[8:1],
8h[8:1]/6h[8:1],6h[8:1]/4h[8:1],4h[8:1]/2h[8:1],2h[8:1]/8h[8:1],
{8}7^2[8:1],3^6[8:1],,6s2[4:1],,,3b,1h[8:5],,,,,,,
6,7,8h[16:3],,,1h[4:1],,2h[8:1],,2,
{16}1h[8:1],,,7h[8:1],,,6b,,8h[8:1],,,2h[8:1],,,3b,,
{4}7h[2:1],,{8},6^3[8:1],3^8[8:1],#8-C-6[4:1],,,
,7>3[4:1],,3>7[4:1],{1},{4},5b,6b,7b,8b,
{16}1b,3,2,,1,,2,3,,3,2,,1,,3,,
,6,7,,8,,7,6,,6,7,,8,,6,,
,3,2,,1,,2,3,,3,2,,1,,3,,
,6,7,,8,,7,6,,7,6,7,5,7,4,,
,3,1,,7,,1,3,,3,1,,7,1,3,5,
,6,8,,2,,8,6,,6,8,,2,8,6,4,
,3,1,,7,,1,3,,3,1,,7,1,3,5,
,6,8,,2,,8,6,,7,6,7,8,1,2,3,
{4}4b,,,,{8}6s2[8:1],,,5s1[8:1],,,3h[4:1]/8h[4:1],,
{1},,,E

MASTER

(134){1}1h[1:1],7h[1:1],3h[1:1],6h[1:1],
{8}2h[1:1],5,,5,,4,,4,6h[1:1],5,,5,,4,,4,
4h[4:3],5,,5,,6,,6b/5h[8:7],,6,{16}6,6,6,6,6,6,6,6,{4}6b,
{16}5,3,1,,7,,1,3,,3,1,,7,1,3,5,
,6,8,,2,,8,6,,6,8,,2,8,6,4,
,3,1,,7,,1,3,,3,1,,7,1,3,5,
,6,8,,2,,8,6,,7,6,7,8,1,2,1,
3,,,3,,,2,,,2,,,3,,4,,
6,,,6,,,7,,,7,,,6,,5,,
3,,,3,,,2,,,2,,,3,,4,,
6,,,6,,,7,,,7,,,6,,5,,
{8}4h[4:3],3,3,3,2,3,,1,4h[4:3],8,,7,,5,6,,
5h[4:3],3,3,3,2,3,,1,5h[4:3],1,8,1,2,,3,,
5h[4:3],6,6,6,7,6,,8,5h[4:3],1,,2,,4,3,2,
4h[4:3],6,6,6,7,6,,8,4h[4:3],5,,1,,2,3,4h[8:5],
{2}6h[2:1],{16},,3/6,,1,6,{8}7h[8:5],
{2}5h[2:1],{16},,5/6,,4,5,{8}2,
1h[4:1]/3h[2:1],,4,4h[8:1],,{16}2/3,,1,3,{8}2,
3h[4:1]/4h[2:1],,2,1,,{16}8/4,,7,4,
{8}6h[2:1],{2}5h[2:1],{16},,3/6,,1,6,{8}7h[8:5],
{2}5h[2:1],{16},,5/6,,3,5,3,,{8}
{2}2<3[4:1],{16},,2/3,,1,3,2,,{1}3>2[4:1],
{4}6s2[4:1]/7z3[4:1],,,1b/8b,
4-6[4:1],4/2-4[4:1],2/8-2[4:1],8/6-8[4:1],
1-7[4:1],1/3-1[4:1],3/5-3[4:1],5/7-5[4:1],
5-3[4:1],5/7-5[4:1],7/1-7[4:1],1/3-1[4:1],
8-2[4:1],8/6-8[4:1],6/4-6[4:1],4/2,
{16}3/6h[8:1],,,3,5h[8:1],,2,,4h[8:1],2,,,3h[8:1],,4,,
6/3h[8:1],,,6,4h[8:1],,7,,5h[8:1],7,,,5/6h[8:1],,5,,
3/6h[8:1],,,3,5h[8:1],,2,,4h[8:1],2,,,4/3h[8:1],,4,,
6/3h[8:1],,,6,4h[8:1],,7,,5h[8:1],7,,,8/6h[8:1],,5,,
{8}7^2[8:1],3^6[8:1],,6s2[4:1],,,3b,1h[8:5],,,,,,,
1-3[8:1],1-4[6:1],1-5[4:1],,8-6[6:1],8-5[8:1],,8-4[8:1],,2,
{16}2-7[8:1],,,7-5[16:1],,,6b,,7-2[8:1],,,2-4[16:1],,,3b,,
{4}7h[2:1],,{8},6^3[8:1],3^8[8:1],#8-C-6[4:1],,,
,7>3[4:1],,3>7[4:1],{1},{8},4,8h[4:1],,3b,6h[4:1],,7h[4:1],,8b,
{16},3,1,,7,,1,3,,3,1,,7,1,3,5,
,6,8,,2,,8,6,,6,8,,2,8,6,4,
,3,1,,7,,1,3,,3,1,,7,1,3,5,
,6,8,,2,,8,6,,7,6,7,8,1,2,1,
1/6h[8:1],,,1,5h[8:1],,8,,4h[8:1],8,,,1/3h[8:1],,2,,
8/3h[8:1],,,8,4h[8:1],,1,,5h[8:1],1,,,8/6h[8:1],,7,,
1/6h[8:1],,,1,5h[8:1],,8,,4h[8:1],8,,,1/3h[8:1],,2,,
8/3h[8:1],,,8,4h[8:1],,1,,5h[8:1],1,,,8/6h[8:1],,7,,
{4}4b/5b,,,,{8}2<3[8:1],,,3>2[8:1],,,6s2[16:1],,
{1}3b,,,E

名前:
コメント:

タグ:

+ タグ編集
  • タグ:

このサイトはreCAPTCHAによって保護されており、Googleの プライバシーポリシー利用規約 が適用されます。

最終更新:2014年03月29日 12:31