キズナの物語

BPM EASY BASIC ADVANCED EXPERT MASTER
128 1 4 6 7 11+

EXPERT MASTER Re:MASTER
譜面制作者 某S氏 はっぴー -

EASY

(128){1}
1,1,8,8,
1,1,2h[1:1],,
1,2,3,4,
5,6,7,8,
7,7,8,8,
1,1,2,2,
1,8,8,1,
2,2,1,2b,
3h[1:1],,
4h[1:1],,
5h[1:1],,
6h[1:1],,
7b,
8-5[4:3],,
4-1[4:3],,
1,1,8,8,1b,
2,3,4,5,
6,7,8,
1h[1:1],,
1h[1:1],,
8h[1:1],,
8-4[4:3],
,,E

BASIC

(128){2}
1,,8,,1,1,
2h[2:1],,34,,56,,
7-3[4:3],,,,
2,2,1,,
8,8,7,,
6,6,5,5,
4,4,3b,,
1,1,2h[2:1],,
3,3,4h[2:1],,
5,5,6h[2:1],,
7,7,8h[2:1],,
{4}
1,1,,,8,8,,,
7,7,,,6h[2:1],,,,
5,5,,,4,4,,,
3,3,,,2h[2:1],,,,
{2}
1,1,12,12,
3,3,3h[2:1]/4h[2:1],,
5,5,56,56,
7,7,8-3[4:3],,,,
1b,,8b,,
{4}
1,1,8,8,2h[2:1]/7h[2:1],,,,
3,3,3,,4,4,4,,
5,,6,,56,,,,
{1}
8b,1b,
{4}
8,8,1,1,2h[2:1]/7h[2:1],,,,
6,6,6,,5,5,5,,
{2}
4-1[4:3],,,,
2,2,1h[2:1]/2h[2:1],,
8,8,7h[2:1]/8h[2:1],,
7,6,5,4,
3,3-6[4:3],
{1},,E

ADVANCED

(128){1}
2-7[2:1],6-3[2:1],
1-6[2:1],8-3[2:1],
4-1[2:1],5-8[2:1],
3q6[4:3],
{4}
,,8b,8b,
1,3,5,,8,6,4,,
2,1,8,,6,5,4,34,
1,2,3,4,8,7,6,5,
3,6,2,7,1h[2:1],,8b,8b,
7h[4:3],,,,1,3,5,3,
2h[4:3],,,,8,6,4,6,
7^2[2:1],,,,3^6[2:1],,,,
1-5[2:1],,,,8-4[2:1],,,,
1,1,1^3[8:1],,
8,8,8^6[8:1],,
3,3,3^5[8:1],,
6,6,6^4[8:1],,
1,1,1-3[8:1],,
8,8,8-6[8:1],,
4-6[8:1],,5-3[8:1],,
{1}
1h[4:3],
2h[1:1],8h[1:1],
1h[1:1],7h[1:1],
3h[1:1],5h[1:1],
4h[1:1],6h[1:1],
{4}
,,1b/8b,1b/8-4[4:1],
,,1,1-5[4:1],,,8,8,
8,7,6,5,4,3,2,1b,
8,8-4[4:1],,,
1,1-5[4:1],,,
12,12,78,78,
18,27,36,4-1[4:1]/5-8[4:1],
,,12,1-6[4:1]/2-5[4:1],
,,78,7-4[4:1]/8-3[4:1],
,,56,,
78,,12,1b/8b,
2,2,2,18,
7,7,7,18,
2h[2:3]/7h[2:3],,,,
,,,1b/8b,
8,6,4,,1,3,5,,
7,8,1,,3,4,5,56,
8,7,6,5,1,2,3,4,
6,3,7,2<5[4:5],,,
{1},,E

EXPERT

(128){2}
2q4[8:5],,
7p5[8:5],,
3h[4:1],6h[4:1],
5^8[8:5]/4^1[8:5],,
{4}
2,3,34,,7,6,65,4,
3>6[4:5],,,,,,,,
3,3,3,12,6,6,6,78,
7,5,3,34,2,4,6,56,
7,3,5,18,2,6,4,18,
6,78,3,12,
6,3,27,1b/8b,
{8}7,,1,,3,,5,6h[8:7],
{1},
{8}2,,8,,6,,4,3h[8:7],
{1},
{8}
6,5,6,,3,4,3,,
2,1,8,7h[8:3],,,,,
34,,56,,7,8,1,2<5[8:5],
{1},
{8}3,,4,,5,,6h[1:1],1h[8:7],
{1},
{8}6,,5,,4,,3h[1:1],8h[8:7],
{1},
{8}
7,8,7,,2,1,2,,
7,8,1,2h[8:3],,,,,
56,,34,,2,1,8,7>4[8:5],
{1},
{4}
4,3,2,1,8q5[2:1],,,,
5,6,7,8,1p4[2:1],,,,
4,5,6,78,4,3,2,12,
7,3,6,2,1^4[2:1]/5^8[2:1],,,,
{8}
2,7,,2h[4:1]/7h[4:1],,,2b/7b,,
3,,3,,7,8,1,,6,,6,,2,1,8,,
7-5[8:1],,,,2-4[8:1],,,,
4^1[8:3]/5^8[8:3],,,,,,,,
3h[8:3],,,4,34,,,,
6h[8:3],,,5,56,,,,
18,,36,,27,,54,,
2b/7b,2b/7b,,,6,3,6,3,
2,1,8,,3,6,3,6,
7,8,1,,5,6,7,8,
1-4[8:1],,,,8-5[8:1],,,,
3h[8:5],,6h[8:3],,,,2b/7b,,
7h[8:3],,,8,78,,,,
2h[8:3],,,1,12,,1^6[4:3]/2^5[4:3],,
{1},,
{8}
45,,2,7,,78,78,7^4[8:3]/8^3[8:3],
{1},
{8}
45,,7,2,,12,1^6[8:3]/2^5[8:3],,
{1},
{8}
3h[4:1]/6h[4:1],,,2-4[8:1],,,,1-5[8:1],
,,,8-4[8:1],,,,7-5[8:1],
,,,45,,63,,7b/2b,
{1},,E

MASTER

(128){1}
2h[1:1],3h[1:1],
{4}
4h[4:1],5h[4:1],6h[4:1],7h[4:1],
{1}
8<3[2:1],2q5[2:1],
{4}
7p4[2:1],,,3>6[1:1],,,,,
,,5^2[8:1]/4^7[8:1],,
{8}
48,7,6,15,2,3,4-7[8:1],,
5-2[8:1],,4-8[8:1],,5-1[8:1],,,,
15,2,3,48,7,6,5-2[8:1],,
4-7[8:1],,5-1[8:1],,4-8[8:1],,,,
5,6-1[8:1],7,,,3-8[8:1],2,,
,7-4[8:1],6,,,2-5[8:1],3,,
,7q6[8:1],6,,,2<3[8:3],3,,
,,,,45,,36,,
{2}
7h[4:3]/8-5[8:1],8-6[8:1],
1-4[8:1]/2h[4:3],1-3[8:1],
7s3[4:1],2z6[4:1],
7s3[4:1],2z6[4:1],
7-4[8:1],2-5[8:1],
6-4[8:1],3-5[8:1],
5v4[8:1],3p6[8:1],
7>4[2:1],,
4p5[4:1],8z4[4:1],
1s5[4:1],8z4[4:1],
{4}
1-4[4:1],4-7[4:1],7-2[4:1],2^5[4:1],
5^8[4:1],8^3[4:1],3,5b,
1p4[8:1],1^6[8:1],1p4[8:1],,
8q5[8:1],8^3[8:1],8q5[8:1],,
6-1[8:1],,5-2[8:1],,
1<3[2:1],,,,
1v3[8:1],2v4[8:1],3v5[8:1],4v6[8:1],
5v7[8:1],6v8[8:1],7v1[8:1],,
8v6[8:1],7v5[8:1],6v4[8:1],5v3[8:1],
4v2[8:1],3v1[8:1],,{16},,8,1<5[4:1],
2,,,,,,,,,,,,,,1,8>4[4:1],
7,,,,,,,,,,,,,,6,5<1[4:1],
4,,,,,,,,,,,,,,3,4-8[4:1],
{4}5,,,,
2b/6b,48,
2^4[8:1]/6^4[8:1],
2^8[8:1]/6^8[8:1],
2b/6b,,
3^5[8:1]/7^5[8:1],
3^1[8:1]/7^1[8:1],
3b/7b,,
8^3[4:1],3^6[4:1],
6^1[4:1],1^4[4:1],
4^7[4:1],7p4[2:1],
,,,{16},,37,2v4[8:3]/6v8[8:3],
15,,,,,,,,,,,,,,
26,3v1[8:3]/7v5[8:3],
{4}48,,,,
7-3[4:1],3-6[4:1],
6-2[4:1],2<6[4:1],6b,,
1^6[8:1]/2^5[8:1],2q7[8:1],,,
7^4[8:1]/8^3[8:1],7p2[8:1],,,
2q7[8:1]/7^2[8:1],,
1-3[8:1],8-4[8:1],
1-5[8:1],8-6[8:1],
1-4[8:1],8-5[8:1],,7-2[8:1],
3-6[8:1],8-4[8:1],,1-5[8:1],
1-7[8:1],1v3[8:1],,1b/2b,
1q5[4:3]/2-7[4:3],,,,,,,,
2h[4:7]/8-5[8:1],
8-3[8:1],8-6[8:1],8-4[8:1],
8-5[8:1],8-3[8:1],8-6[8:1],,
1-4[8:1]/7h[4:7],
1-6[8:1],1-3[8:1],1-5[8:1],
1-4[8:1],1-6[8:1],1-3[8:1],,
1/8-5[8:1],1/8-3[8:1],
2/8-6[8:1],2/8-4[8:1],
1/8-5[8:1],1/8-3[8:1],
2/8-6[8:1],2,1-5[8:1]/7,
1-3[8:1]/7,,1q5[2:3]/7p3[2:3],
{1},,E

  • 128){1} -- 名無しさん (2015-04-15 14:18:51)
名前:
コメント:

タグ:

+ タグ編集
  • タグ:

このサイトはreCAPTCHAによって保護されており、Googleの プライバシーポリシー利用規約 が適用されます。

最終更新:2018年05月09日 05:32