天樂(創作譜面:はるかぜ・ナビ・ぐるん)

曲名 天樂
制作者名 はるかぜ・ナビ・ぐるん
音源 http://www.nicovideo.jp/watch/sm79189834
譜面動画 MASTER
制作者コメント 今回は、simai勢のはるかぜ・ナビ・ぐるんでコラボ企画としまして、ボカロの「天樂」で譜面を作りました。
パートで分けてそれぞれ作って合わせてみた所、修正無し一発で違和感のない譜面に仕上がって3人で感動しました。
見るときに誰がどの部分を作ったか考えてみるのも面白いかもしれません!

はるかぜ→@Etarnal_wind、http://www.nicovideo.jp/mylist/42460793
ナビ→@navidai_1015、http://www.nicovideo.jp/mylist/36539577
ぐるん→@grgrgurun、http://www.nicovideo.jp/mylist/36462701
ぐるんのブログ:http://grgurun.blog.fc2.com/
BPM EASY BASIC ADVANCED EXPERT MASTER
116 1 1 1 1 11

EASY


BASIC


ADVANCED


EXPERT


MASTER

(116){16}
24,,6,57,,4,68,,7,,3,2,3,,5,,6-2[16:1],,6,,6h[8:1],,,,
{32}3,4,3,4,3,4,3,,{16},2,3,2,
35,,7,68,,5,71,,8,,4,3,4,,6,,
{8}5h[4:1]/6-2[16:1],6,6,,4h[4:1]/3-7[16:1],3,
{16},2,1,2,46,,8,71,,6,82,,1,,5,4,5,,7,,2-6[16:1],,2,,2h[8:1],,,,
{32}7,8,7,8,7,8,7,,{16},6,7,6,
71,,3,24,,1,35,,4,,8,7,8,,2,,
{8}7h[4:1]/8q4[16:1],8,8,,2h[4:1]/1p5[16:1],1,1,,

{16}7h[8:3]/6,6,5,5,5,5,5,1h[8:3]/2,,2,2,2,3,3,3,
3h[8:3]/8,,8,8,8,7,7,7,7h[8:3]/4,,4,4,4,3,2,18,,
6h[8:3]/5,5,4,4,4,4,4,8h[8:3]/1,,1,1,1,2,2,2,
2h[8:3]/7,,7,7,7,6,6,6,6h[8:3]/3,,3,3,3,2,1,87,,
7-4[8:1],,4-2[8:1],,2-6[8:1],,6,6-1[8:1],,,1q5[8:1],,5-8[8:1],,
8,8-4[8:1],,,4p7[8:1],,7p3[8:1],,3,3^8[8:1],,,3,,3,,,,
8b/1,,1/2b,,5b,,7b,8/7b,,1b,2/1b,,2,1,8,7,
76,76,,65,65,,54,54,,4h[16:5]/3h[16:5],,,,,,,

2q7[4:1],,2,,2,,3,3,,4,,4h[16:3],,,5,,6,,6,,6,,4-6[16:1]/1-7[16:1],58,,,41,,,,,,
3>7[16:1]/5-1[16:1],,13,,35,,,3,,1,5,,7,4,,3,3h[8:1],,2h[8:1],,1h[8:1],,
8,8-5[16:1],,6-3[16:1],6,,,,,,
7p2[4:1],,7,,7,,6,6,,5,,5h[16:3],,,4,,3,,3,,3,,32,41,,8p3[8:1]/5q2[8:1],67,85,,,,,,,
27,,1-4[16:1]/8,,1/8-5[16:1],18,,8,18,,
5,,36,4-8[16:1]/5,,,4-2[16:1]/5,,5,,5,,,,
6-4[16:1]/7-1[16:1],,6-3[16:1]/7-2[16:1],,6^3[4:1]/7^2[4:1],,

{4}6b/7b,,,



{16},,,7<2[6:1],,,1,,8,,,
2>7[6:1],,,8,,1,,,,
{8}
7^5[16:1]/2^4[16:1],18,72,
{16}1,13,,8,86,,1,8,1,
27,,,7^4[16:1],,3,2,1,
8,,,
{32}1,8,7,6,{16}5,4,3,2,

{16}65,,34,,7,2,18,,
1,8-6[32:1],1-3[32:1],8,1,8,1,,

{16}21,,78,,3,6,54,,
5,4-2[32:1],5-7[32:1],4,5,4,5,,

{16}87,,56,,1,4,32,,
3,2-8[32:1],3-5[32:1],2,3,2,3,,

{16}43,,12,,5,8,76,,
7,6-4[32:1],7-1[32:1],6,7,6,7,,
{8}8b,
{16}1z5[8:1],26,7,37,{4},
{16}8z4[8:1],37,6,26,{4},
{16}1z5[8:1],26,7,37,{4},
{16}8z4[8:1],37,6,26,{8},8b,
{8},{4}7-3[16:1]/1-5[16:1],1/7,{8}6,2,
{16}8-4[16:1],8,8,,
8/6-2[16:1],6,6,,
6/1,1,1,,
{32}3,4,5,6,7,,8,,

{8}2h[8:3],3,4-8[16:1],5h[4:2],,,,6,
{8}6h[8:3],7,8-4[16:1],1h[8:3],,,,,
{8}2h[8:3],3,4-8[16:1],5h[4:2],,,,6,
{8}6h[8:3],7,8-4[16:1],1h[8:3],,,5,,

{16}5-7[16:1]/8-4[16:1],,26,,58,,6,5,,1,2,,
36,4,27,,

{16}4-2[16:1]/1-5[16:1],,73,,41,,3,4,,8,7,,
63,5,72,3,

{16}5-7[16:1]/8-4[16:1],,26,,58,,6,5,,1,2,,
36,4,27,,

{16}7-5[16:1],7,,
1-3[16:1],1,,8-4[16:1],8,,7,7,,
18,27,36,,

{16}1-5[16:1],1,1,,
1/7-3[16:1],7,7,,
7/2-5[16:1],2,2,,
2/8,8,8,,

{16}8-4[16:1],8,8,,
8/2-6[16:1],2,2,,
2/7-4[16:1],7,7,,
7/1,1,1,,

{16}4-8[16:1],4,4,,
4/6-2[16:1],6,6,,
6/3-8[16:1],3,3,,
3/5,5,5,,

{16}5-1[16:1],5,5,,
5/3-7[16:1],3,3,,
3/6-1[16:1],6,6,,
6/4,4,4,,

{16}
5,3,2,6,8,4,1,26,,
3,7,5,1,8,37,,
18,18,18,18,18,18,18,3b/6b,
{4},


{4}
3-5[16:1]/8-4[16:1],3b/8b,

{16}
1-7[16:1],5,1,5,
1,5,7,5,
7-3[16:1],5,7,5,
7,5,3,5,
3-6[16:1],5,3,5,
3,5,6,5,
6-2[16:1],5,6,5,
6,5,2,5,
2-7[16:1],5,2,5,
2,5,7,5,
7q2[2:1],5,7,5,
{4}7h[4:2],,,

6-4[16:1]/1-5[16:1],6b/1b,

{16}
5-3[16:1],1,5,1,
5,1,3,1,
3-7[16:1],1,3,1,
3,1,7,1,
7-2[16:1],1,7,1,
7,1,2,1,
6,4,2,5,

{4}
8v6[16:1]/1-5[16:1],
1v3[16:1]/8-4[16:1],
8v6[16:1]/1-5[16:1],
1v3[16:1]/8-4[16:1],
8v6[16:1]/1-5[16:1],
1v3[16:1]/8-4[16:1],
8v6[16:1]/1-5[16:1],
1/8,

{4}4-7[16:1]/5-3[16:1],4-8[16:1]/5-1[16:1],45,{16}45,,,1z5[8:1]/8,
{8},,,6,7,8,1,2>7[5:3],
{4},,,


{16},,,8q5[8:1]/2^5[8:1],,,82,,,,,
6p1[8:1]/4^1[8:1],,,64,,,,,,

{8}1p4[8:1]/7^4[8:1],17,,
{16},3q8[8:1]/5^8[8:1],,,35,,,,,

8q5[8:1]/2^5[8:1],,,82,,,,,
6p1[8:1]/4^1[8:1],,,64,,,,,,

{8}4p7[8:1]/2^7[8:1],42,,
{16},6q3[8:1]/8^3[8:1],,,68,,,,,

3q8[8:1]/5^8[8:1],,,35,,,,,
1p4[8:1]/7^4[8:1],,,17,,,,,,

{16}6h[8:1],,2h[8:1],,4,,
13,74,,26,18,,65,47,38,,
83,5,4,16,4,5,3-5[16:1]/8-4[16:1],65,,,38,,{8},,,



{16}1h[8:1],,8h[16:5],,4,5q8[4:1],,2,,5,,,3-1[8:1],,1-5[8:1],,5-8[8:1],,8-6[8:1],,2,3<1[16:5],,,3h[8:3],,,,,,,,
23,,67,,1,23,,8,67,,4,23,,5,6h[4:1]/7,,8,,1,,6q2[16:3]/2q6[16:3],37,,6^3[8:1]/2^7[8:1],,,,,,,,,
4h[8:15]/5,,3,,8,8-5[16:1],,1,,8,,,8v3[16:1],,8v5[16:1],,8,,,,7,6,,1,2,3-5[16:1],,,,,,,
1h[8:1],,8h[16:3],,6,6h[16:3],,3,3h[8:1],,7h[16:3],,2h[16:1],,,,8-4[8:1]/2-6[8:1],,4-8[8:1]/6-2[8:1],,,,,,,,
1-4[8:1],,4q6[16:12],,2h[1:1],,,,,,,,,,,,,,,,
5,,7,,1,,,,1,,
(116){32}
1,2,3,4,5,6,7,8,1,2,3,4,
(116){16}
5,,5,,5,,,,8,,
(116){32}
8,7,6,5,4,3,2,1,8,7,6,5,
(116){16}
4,,4,,4,,,,1,,
(116){32}
1,2,3,8,7,6,2,3,4,7,6,5,
(116){16}
1,,2,,3,,68,78,,13,12,,,,
18,27,36,,,,7p3[4:1],,7,,3p7[4:1],,3,,7^2[4:1],,7,,2q6[4:1],,2,,6p8[4:1],,6,,8-4[16:1],,,,5h[4:1],,,,1h[8:5],,,,,,,,,,,,
3-8[8:1]/6-1[8:1],,,,3b/6b,,,,,,27,,18,,1p4[8:1],3,,,1,,8,,8p5[2:1],7,6,,8h[2:1],,,,,,,,,,
18,,26,,18,,37,,18,,35,,18,,64,,18,,23,,45,,67,,18,27,,36,,4,5,6,

7^2[4:1],,,,2v4[4:1],,5h[8:1],,,,,,,,1-5[8:1],,1q4[2:3],,,,,,5-2[8:1],,,,,,,,,,2h[4:1],,,,,,2q7[8:1],,,,,,,,12,,78,,,,34,,56,,,,,,,,,,
7^2[4:1],,,,2v4[4:1],,5h[8:1],,,,,,,,1z5[8:1],,8s4[2:3],,,,,,2-6[8:1],,,,,,,,,,6h[4:1],,,,,,3h[4:1],,,,,,3-7[8:1],,,,3,,,,3-7[8:1]/2-6[8:1],,7-3[8:1]/6-2[8:1],,,,,,,,
1-5[8:1],,2-6[8:1],,1,,2,,4,3,,,2,,1,,8-4[8:1],,7-3[8:1],,8,,7,,5,6,,,27,,,,
8^5[8:1],,5^2[8:1],,2^7[8:1],,8,,5-8[8:1],4,,,5,,4,,1^4[8:1],,4^7[8:1],,7^2[8:1],,1,,4-1[8:1],5,,,4,,5,,27,,2,,3,,4,,5,,6,,7,,8,,1,,2,3,4,5,6,7,8,1,
(116){32}
2,3,4,5,6,7,8,1,
(116){16}
2-5[16:1]/7-4[16:1],,,,2b/7b,,,,,,45,,83,,1-3[8:1],3,,,1,,17,,8-6[8:1],6,,,8,,34,,56,,12,,78,,1-3[8:1]/8-2[8:1],,,,1-7[8:1]/8-6[8:1],,,,1-3[8:1]/8-4[8:1],,,,1-5[8:1]/8-6[8:1],,,,1b/8b,,,,,,,,,,,,
7q3[16:1]/3q7[16:1],,,,3b/7b,,,,,,75,,42,,1q3[16:9],8,,,1,,7,,6-2[16:1],5,,,6,,,,23,,14,,85,,
7-1[8:1]/6-2[8:1],,2v4[16:1],,7b/6b,,,,7h[8:3]/5-2[8:1],,,,5b,,,,7q4[8:1]/8-5,,12,,7b/8b,,,,6-8[8:1]/8-2[8:1],,2-5[16:1],,6b/8b,,,,8-4[8:1]/1-3[8:1],,,,8-6[8:1]/1-5[8:1],,,,18,,,,5-8[16:1]/4-1[16:1],,,5b/4b,,,,,,,
1h[8:1],,3h[8:1],,5h[8:1],,7h[8:1],,1b,,1,8,1,8,2,7,2,7,3,6,3,6,4,5,4,5,36,52,,36,47,,27,1b/8b,,,,,



{4}1h[4:1]/7-4[16:1],
{8}7-2[16:1],3,7/2v4[8:1],6,2/8-6[16:1],2,8/6z2[8:1],7,
6/7q4[16:1],1,7/8-5[8:1],6,8-3[16:1],83,8,12,
1-7[8:1],7-5[8:1],5-3[8:1],3-1[8:1],1-6[8:1],6^8[8:1],8p5[2:1],,8h[2:1],,,,,,
{4}4h[4:1]/6-1[16:1],
{8}6-3[16:1],2,6/3v1[8:1],7,3/5-7[16:1],3,5/7p3[8:1],4,
7/6^1[16:1],3,6/5-8[8:1],7,5-2[16:1],5,5,,
{16}3v8[8:1]/7v4[8:1],2,6,2,3b/7b,,,,
6v1[8:1]/2v5[8:1],7,3,7,6b/2b,,,,
3v1[8:1]/7v5[8:1],6,2,6,3b/7b,,,,
6v8[8:1]/2v4[8:1],3,7,3,6b/2b,,,,
{8}67,1b/8b,23,1b/8b,56,1b/8b,34,{16}1b/8b,1b/8b,,,45,,45,,
{8}12,38,5^2[1:5]/6^1[1:5],47,56,,,
{1},,,,,,,,E

名前:
コメント:

タグ:

+ タグ編集
  • タグ:

このサイトはreCAPTCHAによって保護されており、Googleの プライバシーポリシー利用規約 が適用されます。

最終更新:2014年06月09日 23:40