BETTER CHOICE

BPM EASY BASIC ADVANCED EXPERT MASTER
130 3 5 7 9+ 12

EASY

(130){8},,,,,,,
{1},,,,8,8,7,7h[1:1],,
{2}8,8,1,,2,2,3,,
4,4,5,,6,,{0.5}
7-2[2:1],3-6[2:1],
5-8[2:1],1-4[2:1],
5h[1:1],4h[1:1],
3h[1:1],2h[1:1],
{4}1,1,,,1,1,,,
{0.5}2h[1:1],
{4}8,8,,,8,8,,,
{0.5}7h[1:1],1,,2,,3,,
{2}4,4,5,,6,,7,,8,,
{0.5}1h[1:1],8h[1:1],7h[1:1],
{4}6,6,6,,5,5,5b,,
{2}4,4,3,,3,3,
{1}2-7[2:1],,E

BASIC

(130){8},,,
{2},,,,,8,,1,,8,1,8,1,8,8,1,1,
{4}2,,1,,2,2,2,,4,,3,,4,4,4,,
6,,5,,6,6,6,,8,,7,,8,8,8,
8b,,,8,8,,,7,7,,,1,1,,,
2,2,,,3,3,,,4,4,,,6,6,,,5,5,
{2}5b,
4h[2:1],,5h[2:1],,3h[2:1],,6h[2:1],,
2h[2:1],,7h[2:1],,1h[2:1]/8h[2:1],,
18,1b/8b,{4}
1,1,2,,3,3,4,,5,5,6,,7,7,8,,
8,8,7/8,,6,6,5/6,,4,4,3/4,,2,2,1/2,,
8,8,8,,1,,8,,8,8,7,,7,6,5,,
1,1,1,,8,,1,,1,1,2,,2,3,4b,,,,,
7,8,1-4[4:3],,,,,,2,1,8-5[4:3],,,,,,
6,7,8-5[4:3],,,,,,,{2}1b,
2h[2:1],,1h[2:1],,8h[2:1],,
{1}7-4[4:3],,,E

ADVANCED

(130){8},{2},,
3/4,5/6,7/8,1/2,3/4,5/6,
{4}4/5,3/6,2/7,,1/8,,4/7,,3/6,,2/5,,
1/8,2/7,3/6,4h[4:1]/5h[4:1],,
{8}2/7,,1,8,1,,2/7,,
3/6,,5,4,5,,3/6,,4,5,4,5,4,,5/6,,
3/4,,2,1,2,,7,8,7,,1,8,1,,2/7,,
3/6,,4,5,4,,3/6,,5,4,5,4,5,,3/4,,
5/6,,4/5,,3/6,,,,4/5,,2/7,,
1,,28,,3,4,3,,5,,46,,7,8,7,,
1,,28,,3,4,3,,6,5,6,,7,8,7,,
8,,17,,6,5,6,,4,,35,,2,1,2,,
8,,17,,6,5,6,,3,4,3,,2,1,2,,
{2}7h[2:1],6h[2:1],5h[2:1],
{8}4h[4:1],,5,,3/6,,2/5,,
1,8,7,,3/6,,4/7,,8,1,2,,
{2}2h[2:1],3h[2:1],4h[2:1],
{8}5h[4:1],,4,,3/6,,2/7,,
1,8,1,8,1,,7/8,,1/2,,1b/8b,,
3,4,3,5,5,2,2,,6,5,6,4,4,7,7,,
8,1,8,2,2,7,7,,6,6,5/6,,3,3,3/4,,
6,5,6,4,4,7,7,,3,4,3,5,5,2,2,,
1,8,1,7,7,2,2,,3,4,5,6,4/5,,2/7,,
3>6[2:1],,,,,,,,45,,6,6,5,5,4,4,
3,,1/2,,3/4,,5/6,,3,4,3,,6,5,6,,
6<3[2:1],,,,,,,,4/5,,3,3,4,4,5,5,
6,,7/8,,5/6,,3/4,,1/2,,7/8,,1,8,2,7,
{2}
3-5[8:1],6-4[8:1],2-5[8:1],7-4[8:1],
1-5[8:1],8-4[8:1],1-6[8:1],8-3[8:1],
1-5[8:1],8-4[8:1],2-5[8:1],7-4[8:1],
1s5[2:1],,{8}
4/5,,3/6,,2,7,1/8,,2,8,2,,2,4,2,,
7,5,7,,7,1,7,,2,1,3/8,,7,8,6/1,,
8,1,7,2,6,3,5,4,
{1},,E

EXPERT

(130){2},
{8},,,8,1,7,2,6,3,
{16}8,1,,2h[16:13]/7,,,
{8}8,7,6,5^8[8:1],,,,
1,2,3,,8,7,6,,2,3,4,,
7,6,5,,1,8,2,7,3,6,
{16}1,8,,7h[16:13]/2,,,
{8}1,2,3,4^1[8:1],,,,
8,7,6,,1,2,3,,7,6,5,,2,3,4,,
2,2,1,,7,7,8,,6h[4:1]/5,,5,,3h[4:1]/4,,4,,
7,7,8,,2,2,1,,3h[4:1]/4,,4,,6h[4:1]/5,,5,,
2,8,2,,7,1,7,,4/6,6,6/4,,5/3,3,3/5,,
7,1,7,,2,8,2,,5/3,3,3/5,,4/6,6,6/4,,
8,1,7h[4:1],,1,8,2h[4:1],,
8,1,7h[4:1],,1,8,2h[4:1],,
{2}8^5[4:1],1^4[4:1],8^5[4:1],1^4[4:1],{8}
7,8,6h[4:1],,2,1,3h[4:1],,7,8,6h[4:1],,2,1,3h[4:1],,
{2}7^4[4:1],2^5[4:1],7^4[4:1],2^5[4:1],{16}
8h[16:3],,,2h[16:3],,,4h[16:3],,,6h[16:3],,,8,,,,
8h[16:3],,,6h[16:3],,,4h[16:3],,,2h[16:3],,,8,,,,
{2}1-5[4:1],8-4[4:1],2-5[4:1],7-4[4:1],{16}
1h[16:3],,,7h[16:3],,,5h[16:3],,,3h[16:3],,,1,,,,
1h[16:3],,,3h[16:3],,,5h[16:3],,,7h[16:3],,,1,,,,
{4}8<1[4:3],,,,,{16}8,8,,,1,1,,,2b/7b,,,,
1,8,,2,,7,,3h[16:7],,,8,,7,,6,,5,4,,6,,3,,2/7,,,,,
{8}3,6h[1:1],,,1,,2,,3,2p1[2:1],,,,,,,,,{16}
8,1,,7,,2,,6h[16:7],,,1,,2,,3,,4,5,,3,,6,,2/7,,,,,
{8}6,3h[1:1],,,8,,7,,6,7q8[2:1],,,,,,,,,3/6,,
{16}1,8,,1/8,,2/7,,3/6,,4/5,,2b/7b,,,,,
{8}1,8,2h[16:3]/7h[16:3],,,2v4[8:3]/7v5[8:3],,,,,,,
4/5,3h[8:7]/6,,,7,,8^6[8:1],,,,4/5,,
{16}1,8,,1/8,,2/7,,3/6,,4/5,,2b/7b,,,,,
{8}1,8,2h[16:3]/7h[16:3],,,2v1[8:3]/7v8[8:3],,,,,,,
4/5,6h[8:7]/3,,,2,,1^3[8:1],,,,
3/6p3[2:1],,,,,,,,2/4,,3,4,3,2,1/3,,
6/3q6[2:1],,,,,,,,5/7,,6,5,6,7,6/8,,
3/6p3[2:1],,,,,,,,2/4,,3,4,3,2,1/3,,
5/6,,7/8,,1/2,,3/4,,6,5/6,3,3/4,
{16}7,2,7,2,,1b/8b,,,
8,,1,,7,,2,,6,,3,,8,1,,2h[16:13]/7,,,
8,,7,,6,,5^8[16:1],,,,,,,,
1,,8,,2,,7,,3,,6,,1,8,,7h[16:13]/2,,,
1,,2,,3,,4^1[16:1],,,,,,
{1}8b,,,E


MASTER

(130){16}
3,4,5,6,,,4/5,,,6,5,4,,1/8,,,
3,2,3,1,3,8,3,7,3,6,3,5,3,
4h[16:5],,,,,5-2[8:1],,,,7,,,,
3,6,4,5,2h[16:3],,,4,,,7h[8:1],,5,,,,
3-8[8:1]/6-1[8:1],,,,,,,,
2/7,,,,3,4,3,,6,5,6,,1/8,,
6,7,6,8,6,1,6,2,6,3,6,4,6,
5h[16:5],,,,,4-7[8:1],,,,2,,,,
6,3,5,4,7h[16:3],,,5,,,2h[8:1],,3,,,,
4-7[8:1]/5-2[8:1],,,,,,,,1/8,,,,3/6,,,,4,5,4,5,
3h[16:3],,,4,,2/5,,,6h[16:3],,,5,,4/7,,,
2h[16:3],,,1,,3/8,,,7h[16:3],,,8,,1/6,,,
2h[16:3],,,3,,1/4,,,7h[16:3],,,6,,5/8,,,
1h[16:3],,,8,,2/7,,,4/5,,,,5,4,5,4,
6h[16:3],,,5,,4/7,,,3h[16:3],,,4,,2/5,,,
7h[16:3],,,8,,1/6,,,2h[16:3],,,1,,3/8,,,
7h[16:3],,,6,,5/8,,,2h[16:3],,,3,,1/4,,,
5h[16:3],,,4,,27,,,8-4[8:1],,,,8b,,1b,,,,
3,,2/4,,5,4,,,6,,5/7,,4,5,,,2/7,,8,1,,2/7,,2/7,,,
3h[8:1],,6h[8:1],,4h[4:1],,,,5h[4:1],,,,1,,,
2/7,,,3,4,3,,,2/5,,,6,5,6,,,4/7,,,1/2,,7/8,,
6,,5/7,,4,5,,,3,,2/4,,5,4,,,2/7,,1,8,,2/7,,2/7,,,
6h[8:1],,3h[8:1],,8h[16:3],,,1,,,
6,5,6,,,4/7,,,3,4,3,,,2/5,,,1,8,1,,,2/7,,,4,5,
{2}4q5[4:1],7p6[4:1],2q3[4:1],8q1[4:1],
{16}2,,,,
4,5h[8:5],,6,,6,,6,,6,,6q3[8:1],,,,,,
8,7,6<3[8:1],,,,,,,,,2z6[4:1],,,,,,,,
7s3[4:1],,,,,,,,2,,,,
5,4h[8:5],,3,,3,,3,,3,,3p6[8:1],,,,,
1,,,,27,,,,3,6,4,5h[16:5],,,,,
1,48,,,48,15,,,3b/6b,,1b/8b,,
4,4h[8:3],,3,,2,,1,,,3/8,,2/7,,1/6,,
5,5h[8:3],,6,,7,,8,,,1/6,,2/7,,3/8,,,,
4^1[8:1],,1^6[8:1],,,,,,5^8[8:1],,8^3[8:1],,,,,,
4^1[8:1],,1^6[8:1],,,,,,5,,4/5,,,,
5,5h[8:3],,6,,7,,8,,,1/6,,2/7,,3/8,,
4,4h[8:3],,3,,2,,1,,,3/8,,2/7,,1/6,,,,
5^8[8:1],,8^3[8:1],,,,,,4^1[8:1],,1^6[8:1],,,,,,
5^8[8:1],,8^3[8:1],,,,,,4,,4/5,,,,2b/7b,,,,
1,8,,6/7,,6/8,,1/6<3[4:1],,2/6,,3/6,,,,,
5,,4,,3/6,,,8h[16:7],,,1h[4:1],,,,,,
1^4[8:1]/8^5[8:1],,,,,,,,4/5,,2/7,,,,
2,,1,,3/8,,,,7,,1/6,,,,2b/7b,,,,
8,1,,2/3,,1/3,,3>6[4:1]/8,,3/7,,3/6,,,,,
5,,4,,3/6,,,8h[16:7],,,1h[4:1],,,,,,
1p4[8:1]/8q5[8:1],,,,,,,,4/5,,2/7,,,,
7,,8,,1/6,,,,2,,3/8,,,,
7p4[4:1],,,,,,,,2q5[4:1],,,,,,,,
6,,,,4/7,,3/6,,5,4,,3/5,,4/6,,2/7,
2q5[4:1],,,,,,,,7p4[4:1],,,,,,,,
3,,,,2/5,,3/6,,4,5,,4/6,,3/5,,2/7,
7q2[4:1],,,,,,,,3q6[4:1],,,,,,,,
8,,,,1/7,,2/8,,1,8,,2/7,,3/6,,
4>5[8:3]/5<4[8:3],,,,4/5,,,,,,,,,
3/6,,,,4,5,4,5,,2,7,2,6,3,6,3,,1b/8b,,,
2,,1/3,,8,,1/7,,6,,7/8,,1,,2/8,,
7,,6/8,,1,,2/8,,3,,1/2,,8,,1/7,,
6,,5/7,,3,,2/4,,1,,5/6,,8,,3/4,,
1,8, 2,7,3,6,4,5,3,6,2,7,1,,
{1}
4b/8b,,,,E

  • MASTER譜面だけオフセット1.6secほど早めです -- 名無しさん (2014-11-29 15:10:59)
  • ↑赤以下をオフセット反映済みに書き換えました。また、昔書いたのですが相当間違ってたのでかなり修正しました。ついでにレベル変更を反映しました。 -- Sea (2018-04-27 13:33:01)
名前:
コメント:

タグ:

+ タグ編集
  • タグ:

このサイトはreCAPTCHAによって保護されており、Googleの プライバシーポリシー利用規約 が適用されます。

最終更新:2020年06月22日 20:45