アンハッピーリフレイン(公式冗談譜面)

BPM EASY BASIC ADVANCED EXPERT MASTER
205 - - - 1

EASY


BASIC


ADVANCED


EXPERT


MASTER

(204.9){1},,,,
{8}27,,46,46,,35,35,,27,,35,35,,46,46,,
27,,68,68,,13,13,,27,,13,13,,68,68,,
27,,57,57,,24,24,,27,,24,24,,57,57,,
27,,81,27,,45,63,,27,,81,27,,45,27,,
,1>8[4:187]/8p5[4:187],,,,,,,,
{1},,,,,,,,,,,,,,,,,,,,,,,,,,,,,,,,,,,,,,,,,,,,,,,
{8}1b/8b,,,2b/3b,,,,,4b/5b,,,6b/7b,,,,,{2},,,,
{8}8b/1b,,,7b/6b,,,,,5b/4b,,,3b/2b,,,,,{2},,,,
{8}1b/8b,,,2b/3b,,,,,4b/5b,,,6b/7b,,,,,{2},,,,
{8}8b/1b,,,7b/6b,,,,,5b/4b,,,3b/2b,,,
1b/8b,,1b/8b,,1b/8b,,1b/8b,1b/8b,,1b/8b,,1b/8b,1b/8b,,1b/8b,,,,
{2},,,,{4},3b,1b/8b,,,,,,{1},,,,,,,,,,,,
{16}7b/8b,7b/8b,7b/8b,7b/8b,
7b/8b,7b/8b,7b/8b,7b/8b,
7b/8b,,,,,,,,
4b/3b,4b/3b,4b/3b,4b/3b,
4b/3b,4b/3b,4b/3b,4b/3b,
4b/3b,,,,,,,,
1b/2b,1b/2b,1b/2b,1b/2b,
1b/2b,1b/2b,1b/2b,1b/2b,
1b/2b,,,,,,,,
5b/6b,5b/6b,5b/6b,5b/6b,
5b/6b,5b/6b,5b/6b,5b/6b,
5b/6b,,,,,,,,1b,,,,,,,,
{1},,,,,,,,,,,,E


名前:
コメント:

タグ:

+ タグ編集
  • タグ:

このサイトはreCAPTCHAによって保護されており、Googleの プライバシーポリシー利用規約 が適用されます。

最終更新:2014年12月05日 18:16