サーカス・ギャロップ(創作譜面:わたあめ)

曲名 サーカス・ギャロップ
制作者名 わたあめ
音源 https://www.youtube.com/watch?v=ObW9PzABobo
譜面動画
制作者コメント むしゃくしゃしてやった。後悔はしていない。
BPM EASY BASIC ADVANCED EXPERT MASTER
200-240 - - - - 99

EASY


BASIC


ADVANCED


EXPERT


MASTER

(200){16}2v5[32:1]/7v4[32:1],4-1[32:1]/5-8[32:1],1-6[32:1]/8-3[32:1],,,,,,
3v8[32:1]/6v1[32:1],1-4[32:1]/8-5[32:1],4-7[32:1]/5-2[32:1],,,,,,{32}
36,4,56,3,46,5,36,5,34,6,35,4,36,4,35,6,
45,3,46,3,56,3,46,5,34,5,34,6,35,4,35,6,45,3,45,6,
{4}27,
{96}
37,48,51,62,37,48,51,62,
37,48,51,62,37,48,51,62,
37,48,51,62,37,48,51,62,
37,48,51,62,37,48,51,62,
37,48,51,62,37,48,51,62,
37,48,51,62,37,48,51,62,
37,48,51,62,37,48,51,62,
37,48,51,62,37,48,51,62,
37,48,51,62,37,48,51,62,{4}37,,,{8},
{32}15,2,35,2,{8}1v3[32:1]/5v3[32:1],3-7[32:1],1v4[32:1]/5v4[32:1],4-8[32:1],
1v2[32:1]/5v2[32:1],2-6[32:1],1^3[32:1]/5-2[32:1],,1^7[32:1]/5-8[32:1],46,1^4[32:1]/5,,
{16}1-5[32:1],8,7-2[32:1],6-3[32:1],1-4[32:1]/5,,7-4[32:1],6,
{8}1-3[32:1],7-5[32:1],1-5[32:1],7-3[32:1],1-6[32:1],7-2[32:1],1,7,
{16}48,37,26,37,26,15,26,15,84,15,84,73,8-5[32:1]/4-1[32:1],,{32}2-7[32:1]/6-3[32:1],3,26,7,
{8}8-3[32:1]/4-7[32:1],2-5[32:1]/6-1[32:1],8q5[32:1]/4q1[32:1],2q7[32:1]/6q3[32:1],
8s4[32:1]/4z8[32:1],26,4/8-5[32:1],,{16}4/8-3[32:1],3,2,1,4-2[32:1]/8-2[32:1],5,6-2[32:1],7,
{8}4v6[32:1]/8v6[32:1],6,48,,
{16}1-4[32:1],1-5[32:1],8-5[32:1],8-4[32:1],1^4[32:1],1-6[32:1],8^5[32:1],8-3[32:1],
1-5[32:1],1-4[32:1],8-4[32:1],8-5[32:1],1-6[32:1],1^4[32:1],8-3[32:1],8^5[32:1],
1-4[32:1],1-5[32:1],8-5[32:1],8-4[32:1],1^6[32:1],1,8^3[32:1],8,8,,1,,
{64}4-8[32:1]/5,6,27,3,14,8,76,5,4-1[32:1]/5,6,72,3,1/4-7[32:1],6,82,3,
{8}4-2[32:1],{32}4-6[32:1],5,4,3,
{8}4/8-5[32:1],4/8-3[32:1],4-1[32:1]/8-2[32:1],4-7/8-6[32:1],4v3[32:1]/8v5[32:1],48,48,,
1-4[32:1]/5-8[32:1],4-2[32:1]/8-6[32:1],1p5[32:1]/5-1[16:3],,
{16}1q5[32:1]/5,6,7,8,7-1[32:1],,{32}2-8[32:1]/3,4,56,7,
{8}7-3[32:1]/5-1[32:1],2-6[32:1],7-1[32:1],2-8[32:1]/5,
7v6[32:1]/4-8[32:1],2v3[32:1],7,24,
{16}1-4[32:1],8-5[32:1],2-5[32:1],7-4[32:1],1-5[32:1],8-4[32:1],2-6[32:1],7-3[32:1],
1q1[32:1],8,2,7,1-4[32:1],,{48}3-6[32:1]/5,4,5,46,5,6,
{8}1-6[32:1],3-8[32:1],1-5[32:1],3-7[32:1],1^4[32:1],3,1h[4:1],,
{16}4^1[32:1],8q5[32:1],4q1[32:1],8^5[32:1],4p8[32:1],8,4q8[32:1],8,
4-8[32:1],,4,,4,,,,
6-3[32:1],7-2[32:1],1-5[32:1],4-8[32:1],
6-2[32:1],7-3[32:1],1p5[32:1],4p8[32:1],
6-3[32:1],7-2[32:1],1q5[32:1],4q8[32:1],
6-2[32:1],7-3[32:1],1-5[32:1],4-8[32:1],
6-3[32:1],7-2[32:1],1p5[32:1],4p8[32:1],
6v3[32:1],7,1v8[32:1],4,{8}6^3[32:1],1,6h[4:1],,2-6[32:1],48,2h[4:1],,
8h[24:7],,{288}1,2,3,4,5,6,7,6,5,4,3,2,{12}1,{8},
{64}1-6[32:1]/5,16,26,27,3-6[32:1]/7,38,48,41,1-4[32:1]/5,25,26,36,3-8[32:1]/7,47,48,58,
{32}1q8[32:1]/3,2,1/3p4[32:1],8,1-5[32:1]/3,4,1/3-7[32:1],2,1/3,5,1/3,7,1/3,3,1/3,1,
{48}4/1-7[32:1],5,,6,5,,4/8-2[32:1],5,,4,3,,
4/1v7[32:1],5,,6,5,,4/8v2[32:1],5,,4,3,,
41,5,,6,5,,48,5,,4,3,,
{96}47,,5,7,,,68,,5,1,,,42,,5,2,,,41,,3,8,,,
{48}4/1v2[32:1],5,,6,5,,4,5,,4/1v8[32:1],3,,
4/1v7[32:1],5,,6,5,,4/1v2[32:1],5,,4,3,,
4/1v8[32:1],5,,6,5,,4/1v7[32:1],5,,4,3,,
41,5,,6,5,,41,5,,,,,
{16}5-8[32:1]/4-1[32:1],6,7,6/4-2[32:1],
5-7[32:1]/4,,5/4q1[32:1],6,
5p8[32:1],4^1[32:1],84,6,
5^8[32:1]/4-1[32:1],,7,6/4-2[32:1],
5-8[32:1]/4,,7/4q1[32:1],6,
5-7[32:1],4^1[32:1],54,6,
5p8[32:1]/4-1[32:1],,8,6/4-2[32:1],
5^8[32:1]/4,,7/4q1[32:1],6,
5-8[32:1],4-1[32:1],74,6,54,,
3-7[32:1]/4,3,5/6-2[32:1],6,3/4-8[32:1],4,5-1[32:1]/6,5,
3-7[32:1]/4,3,5/6-2[32:1],6,3/4-8[32:1],4,56,5-1[32:1],
4>5[8:1],,,5,4,,5-1[32:1],,1-5[32:1],,,,6,,3,,
8-4[32:1],5,4-8[32:1],1,1-5[32:1],4,5-1[32:1],8,
2-6[32:1],3,6-2[32:1],7,7-2[32:1],7-4[32:1],3-8[32:1],3-6[32:1],
7-3[32:1],7,3,3,{384}7,8,1,2,1,8,7,8,1,2,1,8,{32},{16},,,
6-2[32:1],6,2,2,{384}6,5,4,3,4,5,6,5,4,3,4,5,{32},{16},,,
1^4[32:1],1^6[32:1],1-5[32:1],1-4[32:1],1-6[32:1],1,1,1,
1,,5,4-1[32:1]/6-1[32:1],37,,46,,
{128}15,2,3,4,5,6,7,8,15,2,3,4,5,6,7,8,15,2,3,4,5,6,7,8,15,2,3,4,5,6,7,8,
15,2,3,4,5,6,7,8,15,2,3,4,5,6,7,8,15,2,3,4,5,6,7,8,15,2,3,4,5,6,7,8,
{384}15,8,7,6,5,4,3,2,1,8,7,6,5,4,3,2,1,8,7,6,5,4,3,2,
15,8,7,6,5,4,3,2,1,8,7,6,5,4,3,2,1,8,7,6,5,4,3,2,
15,8,7,6,5,4,3,2,1,8,7,6,5,4,3,2,1,8,7,6,5,4,3,2,
15,8,7,6,5,4,3,2,1,8,7,6,5,4,3,2,1,8,7,6,5,4,3,2,
15,8,7,6,5,4,3,2,1,8,7,6,5,4,3,2,1,8,7,6,5,4,3,2,
15,8,7,6,5,4,3,2,1,8,7,6,5,4,3,2,1,8,7,6,5,4,3,2,
15,8,7,6,5,4,3,2,1,8,7,6,5,4,3,2,1,8,7,6,5,4,3,2,
15,8,7,6,5,4,3,2,1,8,7,6,5,4,3,2,1,8,7,6,5,4,3,2,
{48}1/4-6[32:1],8,,7,8,,1/5-3[32:1],8,,1,2,,
1/4v6[32:1],8,,7,8,,1/5v3[32:1],8,,1,2,,
14,8,,7,8,,15,8,,1,2,,
{96}16,,8,6,,,75,,8,4,,,13,,8,3,,,14,,2,5,,,
{48}1/4v3[32:1],8,,7,8,,1,8,,1/4v5[32:1],2,,
1/4v6[32:1],8,,7,8,,1/4v3[32:1],8,,1,2,,
1/4v5[32:1],8,,7,8,,1/4v6[32:1],8,,1,2,,
14,8,,7,8,,14,8,,,,,
{32}1-4[32:1]/8,7,6,7,6,,1-3[32:1]/7,6,
15,6,5,,1p4[32:1]/6,7,8,7,
6,,1^4[32:1]/7,8,17,8,7,,
1-4[32:1]/5,6,7,8,8,,1-3[32:1]/7,7,
16,7,6,,1p4[32:1]/8,7,6,5,
6,,1^4[32:1]/7,6,15,6,7,,
1-4[32:1]/8,7,8,7,6,,1-3[32:1]/7,7,
16,6,5,,1p4[32:1]/5,6,7,8,
7,,1^4[32:1]/6,7,18,7,8,,
1-4[32:1]/5,6,7,8,7,,1/7,7,
18,,,,18,7,26,7,36,5,26,7,38,7,26,5,1^4[32:1]/6,6,27,7,38,8,
1-4[32:1]/7,6,7,6,7,,1-3[32:1]/8,7,
1/6,6,8,,1p4[32:1]/5,6,7,7,
7,,1^4[32:1]/8,7,18,6,6,,
1-4[32:1]/5,6,7,7,7,,1/8,7,
18,8,7,,{64}18,7,,,27,6,,,36,5,,,48,7,,,37,6,,,26,5,,,
{32}1-4[32:1]/8,7,6,7,6,5,16,7,
18,,,,{16}1,8,
{32}1-5[32:1],1,5-2[32:1],5,2-6[32:1],2,6-1[32:1],6,
3-7[32:1],3,7-4[32:1],7,4-8[32:1],4,8-3[32:1],8,
1-5[32:1],4,5-2[32:1],8,2-6[32:1],7,6-1[32:1],3,
8,7,3,4,3,7,8,4,
{16}3,,,3,6,,6,,2h[4:1],,,,7,,7,,
{64}
7-2[32:1],6-2[32:1],7-3[32:1],8-3[32:1],2,3,2,1,4,5,4,3,5,4,5,6,
7p1[32:1],6-1[32:1],7-4[32:1],8-4[32:1],2,1,2,3,4,3,4,5,6,5,4,5,
{128}
7-2[32:1],6,6-2[32:1],7,7-3[32:1],8,8-3[32:1],7,2,3,2,1,3,4,2,1,
4,3,4,6,5,6,5,4,3,5,3,4,5,6,4,3,
7,6,6,7,7,8,8,7,1,2,3,4,1,2,3,2,
4,5,6,5,6,4,3,4,5,3,4,3,6,5,3,4,
{8}4h[8:3],8-4[32:1],,8,5h[8:3],1-5[32:1],,1,
{16},,3,6,4-1[32:1],5-8[32:1],6,,4,5,3,6,2,7,1h[4:1],,
,,6,3,5-8[32:1],4-1[32:1],3,,5,4,6,3,7,2,8h[4:1],,
,,3,4,5-8[32:1],4,3,,5h[4:1],,,,2,3,2-6[32:1],1,2,,2,,,,
4,5,3,6,2,7,1,8,2,7,3,6,
{24}4-2[32:1],3,5,4-6[32:1],5,3,
4-1[32:1],3,5,4-7[32:1],5,3,
4-2[32:1],3,5,4-6[32:1],5,3,
4-1[32:1],3,5,4-7[32:1],5,3,
4v3[32:1],2,6,4v5[32:1],6,2,
4-1[32:1],2,6,4-7[32:1],6,2,
4v3[32:1],2,6,4v5[32:1],6,2,
4-1[32:1],2,6,4-7[32:1],6,2,
4,2,6,4,6,2,
{4},
{96}1p5[8:3],2p5[96:35]/8,3p5[48:17]/7,4p5[32:11],3/5p5[3:1],2/6p5[96:31],7p5[16:5],6/8p5[96:29],15,2,13,48,
{192}5,6,4,5,3,4,1,2,8,1,7,8,{256}15,2,3,4,15,8,7,6,{128}45,4,45,5,
{256}1,2,3,4,5,6,7,8,1,2,3,4,5,6,7,8,1,2,3,4,5,6,7,8,1,2,3,4,5,6,7,8,
{384}15,26,37,48,15,26,37,48,15,26,37,48,15,26,37,48,
15,26,37,48,15,26,37,48,15,26,37,48,15,26,37,48,
15,26,37,48,15,26,37,48,15,26,37,48,15,26,37,48,
{4},
{96}1-4[32:1],7,2-5[32:1],6,2,8,3-6[32:1],7,4-7[32:1],6,5-8[32:1],7,2,6-1[32:1],3,7-2[32:1],1,8-3[32:1],{16}4,
{96}1-5[32:1],7,2-6[32:1],6,2,8,3-7[32:1],7,4-8[32:1],6,5-1[32:1],7,2,6-2[32:1],3,7-3[32:1],1,8-4[32:1],{16}4,
{96}1-6[32:1],7,2-7[32:1],6,2,8,3-8[32:1],7,4-1[32:1],6,5-2[32:1],7,2,6-3[32:1],3,7-4[32:1],1,8-5[32:1],{16}4,
{96}1-4[32:1],7,2-5[32:1],6,2,8,3-6[32:1],7,4-7[32:1],6,5-8[32:1],7,2,6-1[32:1],3,7-2[32:1],1,8-3[32:1],{16}4,
{192}1-5[32:1],8,3,6,2,7,4,5,1,7,4,6,3,7,2,6,4,1,2,7,5,8,3,6,1,8,6,8,1,3,7,6,2,3,8,5,1,4,2,6,3,7,1,5,4,8,2,7,
{16}3h[2:1],,,,2,1,8,7,6h[1:1],,2,1,
{96}8,7,8,1,8,1,2,1,2,3,2,3,
{128}4,3,4,5,4,3,2,3,2,1,8,7,8,1,2,3,
{96}4,3,2,3,2,1,2,1,8,1,8,7,
{128}8,7,8,1,2,3,4,5,4,3,4,5,4,3,2,1,
{64}8,8,1,1,2,2,1,1,
{96}2,2,2,3,3,3,4,4,4,5,5,5,
{4}4,
{16}1/4-7[32:1],2,3,4/7-2[32:1],5,6,7/2-5[32:1],8,1,2/5-8[32:1],3,4,
5/8-3[32:1],6,7,8/3-6[32:1],1,2,3/6-1[32:1],4,5,6/1-4[32:1],7,8,14,2,3,,,,
{128}1v8[32:1]/8v1[32:1],1,2,3,4,5,8,1,2v3[32:1]/3v2[32:1],4,1,5,8,6,7,6,
4v5[32:1]/5v4[32:1],3,8,2,{256}7,6,5,4,3,2,1,8,{16}6v7[32:1]/7v6[32:1],
{128}1p1[32:1]/8q8[32:1],1,2,3,4,5,8,1,2q2[32:1]/3p3[32:1],4,1,5,8,6,7,6,
4q4[32:1]/5p5[32:1],3,8,2,{256}7,6,5,4,3,2,1,8,{16}6q6[32:1]/7p7[32:1],
{128}1v8[32:1]/8v1[32:1],1,2,3,4,5,8,1,2v3[32:1]/3v2[32:1],4,1,5,8,6,7,6,
4v5[32:1]/5v4[32:1],3,8,2,{256}7,6,5,4,3,2,1,8,{16}6v7[32:1]/7v6[32:1],
{128}1q1[32:1]/8p8[32:1],1,2,3,4,5,8,1,2p2[32:1]/3q3[32:1],4,1,5,8,6,7,6,
4p4[32:1]/5q5[32:1],3,8,2,{256}7,6,5,4,3,2,1,8,{16}6p6[32:1]/7q7[32:1],
{192}18,7,8,17,8,7,18,7,1,78,1,2,23,1,3,12,3,2,13,2,3,12,3,1,
45,3,4,35,4,5,34,5,4,35,4,5,67,5,7,56,7,5,67,5,6,57,6,7,
28,37,46,57,48,13,24,15,68,17,26,35,46,37,28,13,24,35,26,37,48,57,6,57,
{256}4,2,8,6,4,2,8,6,4,3,2,1,8,7,6,5,4,2,8,6,4,3,2,1,8,1,2,3,4,6,8,2,
{8},1-6[32:1]/8-3[32:1],45,18,,
{16}1-4[32:1],8-4[32:1],1-5[32:1],8-5[32:1],1-3[32:1],8-6[32:1],1-7[32:1],8-2[32:1],
1v2[32:1],8v7[32:1],1v6[32:1],8v3[32:1],1-4[32:1],8-5[32:1],1-6[32:1],8-3[32:1],
1-4[32:1],8-4[32:1],1-5[32:1],8-5[32:1],1-3[32:1],8-6[32:1],1-7[32:1],8-2[32:1],
1v2[32:1],8v7[32:1],1v6[32:1],8v3[32:1],1-4[32:1],8-5[32:1],1-6[32:1],8-3[32:1],
1-4[32:1],8-4[32:1],1-5[32:1],8-5[32:1],1-3[32:1],8-6[32:1],1-7[32:1],8-2[32:1],
1v2[32:1],8v7[32:1],1v6[32:1],8v3[32:1],1-4[32:1],8-5[32:1],1-6[32:1],8-3[32:1],
1-4[32:1],8-4[32:1],1-5[32:1],8-5[32:1],1-3[32:1],8-6[32:1],1-7[32:1],8-2[32:1],
1v2[32:1],8v7[32:1],1v6[32:1],8v3[32:1],1-4[32:1],8-5[32:1],1-6[32:1],8-3[32:1],
1-4[32:1],8-4[32:1],1-5[32:1],8-5[32:1],1-3[32:1],8-6[32:1],1-7[32:1],8-2[32:1],
(201){48}1v2[32:1],8,2,8v7[32:1],1,7,1v6[32:1],7,2,8v3[32:1],2,7,1-4[32:1],8,5,8,1,5,1,8,4,8,1,4,
{1}1b,{2},{16}1,2,3,4,5,6,7,8,
1,,,,1,,,,8,,,8,,8,,,
(202){16}2,,,,2,,,,7,,,7,,7,,,
(203){16}3,,,,3,,,,6,,,6,,6,,,
(204){16}1,,8-5[32:1],,1,,8-3[32:1],,
2,,8-4[32:1],2,,2,8^5[32:1],,
(205){16}1,,8-5[32:1],,1,,8-3[32:1],,
2,,8-4[32:1],2,,2,8^5[32:1],,
(206){16}1,,8-5[32:1],,1,,8-3[32:1],,
2,,8-4[32:1],2,,2,8^5[32:1],,
(207){16},,8-5[32:1]/1,1,1,2,8-3[32:1]/2,2,
1,1,8-4[32:1]/2,2,1,2,8^5[32:1]/2,,
(208){16},,8-5[32:1]/1,1,1,2,8-3[32:1]/2,2,
1,1,8-4[32:1]/2,2,1,2,8^5[32:1]/2,,
(209){16},,8-5[32:1]/1,1,1,2,8-3[32:1]/2,2,
1,1,8-4[32:1]/2,2,1,2,8^5[32:1]/2,,
(210){16}1,2,8-5[32:1]/1,2,2,1,8-3[32:1]/2,1,
2,2,8-4[32:1]/1,1,1,2,8^5[32:1]/1,,
(211){16}1,2,8-5[32:1]/1,2,2,1,8-3[32:1]/2,1,
2,2,8-4[32:1]/1,1,1,2,8^5[32:1]/1,,
(212){16}1,2,8-5[32:1]/1,2,2,1,8-3[32:1]/2,1,
2,2,8-4[32:1]/1,1,1,2,8^5[32:1]/1,,
(213){16}1,2,8-5[32:1]/1,2,2,1,8-3[32:1]/2,1,
2,2,8-4[32:1]/1,1,1,2,8^5[32:1]/1,,
(214){16}1,2,8-5[32:1]/1,2,2,1,8-3[32:1]/2,1,
2,2,8-4[32:1]/1,1,1,2,8^5[32:1]/1,,
(215){16}1,2,8-5[32:1]/1,2,2,1,8-3[32:1]/2,1,
2,2,8-4[32:1]/1,1,1,2,8^5[32:1]/1,,
(216){16}8-5[32:1]/1,2,8-3[32:1]/1,2,8-4[32:1]/2,1,8^5[32:1]/2,1,
8-5[32:1]/2,2,8-3[32:1]/1,1,8-4[32:1]/1,2,8^5[32:1]/1,,
(217){16}8-5[32:1]/1,2,8-3[32:1]/1,2,8-4[32:1]/2,1,8^5[32:1]/2,1,
8-5[32:1]/2,2,8-3[32:1]/1,1,8-4[32:1]/1,2,8^5[32:1]/1,,
(218){16}8-5[32:1]/1,2,8-3[32:1]/1,2,8-4[32:1]/2,1,8^5[32:1]/2,1,
8-5[32:1]/2,2,8-3[32:1]/1,1,8-4[32:1]/1,2,8^5[32:1]/1,,
(219){16}8-5[32:1]/1,2,8-3[32:1]/1,2,8-4[32:1]/2,1,8^5[32:1]/2,1,
8-5[32:1]/2,2,8-3[32:1]/1,1,8-4[32:1]/1,2,8^5[32:1]/1,,
(220){16}8-5[32:1]/1,2,8-3[32:1]/1,2,8-4[32:1]/2,1,8^5[32:1]/2,1,
8-5[32:1]/2,2,8-3[32:1]/1,1,8-4[32:1]/1,2,8^5[32:1]/1,,
(221){24}8-5[32:1]/1,2,1,8-3[32:1]/2,2,1,8-4[32:1]/2,1,2,8^5[32:1]/1,2,2,
8-5[32:1]/1,1,2,8-3[32:1]/2,1,1,8-4[32:1]/2,2,2,8^5[32:1]/1,1,2,
(222){24}8-5[32:1]/1,2,1,8-3[32:1]/2,2,1,8-4[32:1]/2,1,2,8^5[32:1]/1,2,2,
8-5[32:1]/1,1,2,8-3[32:1]/2,1,1,8-4[32:1]/2,2,2,8^5[32:1]/1,1,2,
(223){24}8-5[32:1]/1,2,1,8-3[32:1]/2,2,1,8-4[32:1]/2,1,2,8^5[32:1]/1,2,2,
8-5[32:1]/1,1,2,8-3[32:1]/2,1,1,8-4[32:1]/2,2,2,8^5[32:1]/1,1,2,
(224){32}8-5[32:1]/1,1,2,,8-3[32:1]/2,2,1,,8-4[32:1]/1,2,2,,8^5[32:1]/2,1,1,,
8-5[32:1]/1,2,1,,8-3[32:1]/2,1,2,,8-4[32:1]/2,2,1,1,8^5[32:1]/2,,,,
(225){32}8-5[32:1]/1,1,2,,8-3[32:1]/2,2,1,,8-4[32:1]/1,2,2,,8^5[32:1]/2,1,1,,
8-5[32:1]/1,2,1,,8-3[32:1]/2,1,2,,8-4[32:1]/2,2,1,1,8^5[32:1]/2,,,,
(226){32}8-5[32:1]/1,1,2,,8-3[32:1]/2,2,1,,8-4[32:1]/1,2,2,,8^5[32:1]/2,1,1,,
8-5[32:1]/1,2,1,,8-3[32:1]/2,1,2,,8-4[32:1]/2,2,1,1,8^5[32:1]/2,,,,
(227){32}8-5[32:1]/1,1,2,2,8-3[32:1]/2,2,1,1,8-4[32:1]/1,2,2,1,8^5[32:1]/2,1,1,2,
(228){32}8-5[32:1]/1,2,1,1,8-3[32:1]/2,1,2,2,{48}8-4[32:1]/2,2,2,1,1,1,{8}8^5[32:1]/2,
(229){32}8-5[32:1]/1,1,2,2,8-3[32:1]/2,2,1,1,8-4[32:1]/1,2,2,1,8^5[32:1]/2,1,1,2,
(230){32}8-5[32:1]/1,2,1,1,8-3[32:1]/2,1,2,2,{48}82,2,2,1,1,1,{8}82,
(231){96}
1-5[192:1],8,2,1,2-6[192:1],8,1,8,
4-8[192:1],5,3,4,3-7[192:1],5,4,5,
6-1[192:1],7,6,7,6-3[192:1],7,6,7,
1-4[192:1],8,2,1,2-7[192:1],8,1,8,
4-1[192:1],5,3,4,3-6[192:1],5,4,5,
6-2[192:1],7,6,7,6-4[192:1],7,6,7,
(232){96}
1-5[192:1],8-4[192:1],2,1,2,8,1,8,
4-8[192:1],5-1[192:1],3,4,3,5,4,5,
6-3[192:1],7-2[192:1],6,7,6,7,6,7,
1-4[192:1],8-5[192:1],2,1,2,8,1,8,
4-1[192:1],5-8[192:1],3,4,3,5,4,5,
6-2[192:1],7-3[192:1],6,7,6,7,6,7,
(233){96}
1-5[192:1],8,2,1,2-6[192:1],8,1,8,
4-8[192:1],5,3,4,3-7[192:1],5,4,5,
6-1[192:1],7,6,7,6-3[192:1],7,6,7,
1-4[192:1],8-5[192:1],2,1,2,8,1,8,
4-1[192:1],5-8[192:1],3,4,3,5,4,5,
6-2[192:1],7-3[192:1],6,7,6,7,6,7,
(234){96}
1-5[192:1],8-4[192:1],2,1,2,8,1,8,
4-8[192:1],5-1[192:1],3,4,3,5,4,5,
6-3[192:1],7-2[192:1],6,7,6,7,6,7,
1-4[192:1],8,2,1,2-7[192:1],8,1,8,
4-1[192:1],5,3,4,3-6[192:1],5,4,5,
6-2[192:1],7,6,7,6-4[192:1],7,6,7,
(235){96}
1-5[192:1],8,2,1,2-6[192:1],8,1,8,
4-8[192:1],5-1[192:1],3,4,3,5,4,5,
6-1[192:1],7,6,7,6-3[192:1],7,6,7,
1-4[192:1],8-5[192:1],2,1,2,8,1,8,
4-1[192:1],5,3,4,3-6[192:1],5,4,5,
6-2[192:1],7-3[192:1],6,7,6,7,6,7,
(236){96}
1-5[192:1],8,2-5[192:1],1,2-6[192:1],8,1-6[192:1],8,
4-8[192:1],5-1[192:1],3,4,3-7[192:1],5-2[192:1],4,5,
6-3[192:1],7,6-1[192:1],7,6v5[192:1],7v8[192:1],6,7,
1,8,2,1,2,8,1,8,
4,5,3,4,3,5,4,5,
6,7,6,7,6,7,6,7,
(237){32}14,2,3,4,52,3,4,5,63,4,5,6,74,5,6,7,
(238){24}18,27,3,24,37,4,{32}5,6,7,8,14,3,2,1,
(239){32}5,1,2,6,7,3,4,8,1,5,6,2,3,7,8,4,
(240){32}3,6,2-6[32:1],7,1,8,,,7,,2b,

名前:
コメント:

タグ:

+ タグ編集
  • タグ:

このサイトはreCAPTCHAによって保護されており、Googleの プライバシーポリシー利用規約 が適用されます。

最終更新:2014年12月18日 22:57