Outlaw's Lullaby

BPM EASY BASIC ADVANCED EXPERT MASTER
145 2 4 7 9 12

EASY


BASIC


ADVANCED


EXPERT


MASTER

(145){16}
6h[8:1]/8h[8:1],,,1h[8:1]/3h[8:1],,,5-8[8:1]/7-4[8:1],,
,,,,,,,,
,,4h[8:1]/7h[8:1],,,2h[8:1]/5h[8:1],,,
3h[8:1]/8h[8:1],,,1h[16:3]/6h[16:3],,,,,
1h[8:1]/3h[8:1],,,6h[8:1]/8h[8:1],,,2-5[8:1]/4-1[8:1],,
,,,,,,,,
,,2h[8:1]/5h[8:1],,,4h[8:1]/7h[8:1],,,
1h[8:1]/6h[8:1],,,38,,,38,,
5h[8:1]/7h[8:1],,,2h[8:1]/4h[8:1],,,6-1[8:1]/8-5[8:1],,
,,,,,,,,
,,1h[8:1]/6h[8:1],,,3h[8:1]/8h[8:1],,,
2h[8:1]/5h[8:1],,,4h[16:3]/7h[16:3],,,,,
2h[8:1]/4h[8:1],,,5h[8:1]/7h[8:1],,,1-4[8:1]/3-8[8:1],,
,,,,,,,,
,,3h[8:1]/8h[8:1],,,1h[8:1]/6h[8:1],,,
4h[8:1]/7h[8:1],,,25,,,25,,

{1}1h[4:11],,{4}6,6,6,6,
{32}6,5,4,3,{16}5,4,5,4,5,4,6,5,6,4,5,3,4,3,

8h[16:3],,,2,2,6,1h[16:3],,,7,7,3,5,,4,,
1h[16:3],,,3,3,5,8h[16:3],,,6,6,4,5,,3,,
7h[16:3],,,1,1,5,2h[16:3],,,8,8,4,7,,2,,
6h[16:3],,,2,2,4,3h[16:3],,,7,7,5,6,4,5,,
1h[16:3],,,7,7,3,8h[16:3],,,2,2,6,4,,5,,
8h[16:3],,,6,6,4,1h[16:3],,,3,3,5,4,,6,,
2h[16:3],,,8,8,4,7h[16:3],,,1,1,5,2,,7,,
3h[16:3],,,7,7,5,6h[16:3],,,2,2,4,3,5,4,,

8^5[16:1],,,1,1,,2^5[16:1],,,1,1,,8,,2,,
1^4[16:1],,,8,8,,7^4[16:1],,,8,8,,1,,7,,
1^6[16:1],,,2,2,,3^6[16:1],,,2,2,,1,,3,,
8^3[16:1],,,7,7,,6^3[16:1],,,7,7,,8,,6,,
2^7[16:1],,,3,3,,4^7[16:1],,,3,3,,2,,4,,
7^2[16:1],,,6,6,,5^2[16:1],,,6,6,,7,,5,,
3^8[16:1],,,4,4,,5^8[16:1],,,4,4,,3,,5,,
6^1[16:1],,,5,5,,4^1[16:1],,,5,5,,6,,4,,

{8}2-5[8:1]/6-1[8:1],26,2-7[8:1]/6-3[8:1],,,,,2b/6b,
{16},,38,47,56,,16,25,34,,26,37,4b/8b,,,,
{8}3-8[8:1]/7-4[8:1],37,3-6[8:1]/7-2[8:1],,,,,3b/7b,
{16},,48,37,2b/6b,,15,26,3b/7b,,,,,,,,
{8}2-6[8:1]/8-4[8:1],28,2^5[8:1]/8^5[8:1],,,,,3b/7b,
{16},,14,25,36,,58,47,36,,18,27,3b/6b,,,,
{8}1-5[8:1]/7-3[8:1],17,1^4[8:1]/7^4[8:1],,,,,2b/6b,
{16},,31,48,5b/7b,,86,15,2b/4b,,,,,,,,

3,5,4,5,4,5,2,5,4,5,4,5,7,5,4,5,4,5,6,5,4,5,4,5,
{24}3,6,4,5,3,6,4,5,3,6,4,5,3,4,5,6,5,4,{8}3b,6b,,,18,,

{16}
2,1,3,8,4,7,5,6,4,5,3,4,2,5,1,6,
8,7,1,8,2,1,3,8,2,7,1,6,8,5,1,6,
2,7,3,8,4,1,3,8,2,7,1,6,8,,,,

{8}34,17,45,23,67,28,45,67,12,46,78,35,{16}2,3,4,5,7,6,5,4,
2h[8:1],,,8,8,8,7h[8:1],,,1,1,1,2h[8:1],,,8,8,8,7,1,1,1,2-6[8:1],,,,,,,,,,

7,6,5,,48,,1,2,,37,,6,5,,3,4,
5,,46,,35,,4,3,,12,,4,5,,67,,
,,25,,,47,,5,4,,36,,,,,,
{12}15,2,3,48,7,6,{16}15,,3,4,,6,5,,

4,5,4,,6,5,4,3,4,5,6,,2,3,4,5,
6,7,6,5,4,3,2,1,2,3,4,5,6,7,8,1,
{12}48,7,6,15,2,3,{16}47,,,25,,,38,,

{8}6b/7b,,,2b/3b,,{16},5,4,,5,,

36,4,5,6,5,4,36,,,,,,,,,,
,,7,6,5,6,5,4,5,4,3,24,,,,,
36,5,4,3,4,5,36,,,,,,,,,,
,,2,3,4,3,4,5,4,5,6,57,,,57,,
24,3,4,35,4,5,4b/6b,,,,,,,,,,
57,6,5,46,5,4,3b/5b,,,,,,,,,,
1b/3b,2,3,2b/4b,3,4,3b/5b,,,,,,,,,,
6b/8b,7,6,5b/7b,6,5,4b/6b,,,,,,,,,,
{4},,,,,,,{24}4,5,4,3,4,5,{12}6,5,4,3^6[4:11],

名前:
コメント:

タグ:

+ タグ編集
  • タグ:

このサイトはreCAPTCHAによって保護されており、Googleの プライバシーポリシー利用規約 が適用されます。

最終更新:2015年03月16日 13:34