DON’T STOP ROCKIN’

BPM EASY BASIC ADVANCED EXPERT MASTER
140 - - - 10 12

EASY


BASIC


ADVANCED


EXPERT


MASTER

(140){8}
7<3[8:1],,8,1,2>6[8:1],,1,8,
7<3[8:1],,8,1,2>6[8:1],7<3[8:1],,,
8<4[8:1],,1,2,3<7[8:1],,2,1,
8<4[8:1],,1,2,3<7[8:1],8<4[8:1],,,

1,12,2,23,3,34,4,45,
5,56,6,67,7,78,8,81,
{16}1,1,2,2,3,3,4,4,5,5,6,6,7,7,8,8,
{32}1,2,3,4,5,6,7,8,1,2,3,4,5,6,7,8,{8}1-5[8:1]/5,,1b/5,,

,2h[2:1],4,5,6,7h[8:5],,5,
4,3,2>7[4:1],,7<3[4:1],,2,,
,7h[2:1],5,4,3,2h[8:5],,4,
5,6,7<2[4:1],,2>6[4:1],,7b,,
,2h[2:1],4,5,6,7h[8:5],,5,
4,3,2>7[4:1],,7<3[4:1],,2,,
,7h[2:1],5,4,3,2,,67,
25,,23,47,{16}2b,6b,8b,4b,{8}2b,,

2-7[8:1]/6-3[8:1],3-6[8:1]/7-2[8:1],,,,1,8,45,
2-7[8:1]/6-3[8:1],3-6[8:1]/7-2[8:1],,,,4,5,18,
3-8[8:1]/7-4[8:1],4-7[8:1]/8-3[8:1],,,,2,1,56,
8,{16},1,{8}1,7h[8:1],5h[8:1],4h[8:1],2,,
3-6[8:1]/7-2[8:1],2-7[8:1]/6-3[8:1],,,,8,1,45,
3-6[8:1]/7-2[8:1],2-7[8:1]/6-3[8:1],,,,5,4,18,
2-5[8:1]/6-1[8:1],1-6[8:1]/5-2[8:1],,,,7,8,34,
1,{16},8,{8}8,2h[8:1],4h[8:1],5h[8:1],7b,,

{16}
2^5[8:1],1,2,1,2,,,,7^4[8:1],8,7,8,7,,,,
2q6[8:1],1,2,1,2,,,,7p3[8:1],8,7,8,7,,,,
5<1[8:1]/1,2,3,4,5,,,,6<2[8:1]/2,3,4,5,6,,,,
7>3[8:1]/3,4,5,6,7,,,,8>4[8:1]/4,5,6,7,8,,,,
4>8[8:1]/8,7,6,5,4,,,,3>7[8:1]/7,6,5,4,3,,,,
2<6[8:1]/6,5,4,3,2,,,,1<5[8:1]/5,4,3,2,1,,,,
1,1,3,3,5,5,7,7,2,2,4,4,6,6,8,8,
{32}1,2,3,4,5,6,7,8,1,2,3,4,5,6,7,8,1,2,3,4,5,6,7,8,{8}1/5b,,

1h[4:3],,,8,2h[4:3],,,1,
3h[4:3],,,2,4h[4:3],,,3,
5h[4:3],,,4,6h[4:3],,,5,
7h[4:3],,,6,8h[4:1],,,,
8h[4:3],,,1,7h[4:3],,,8,
6h[4:3],,,7,5h[4:3],,,6,
4h[4:3],,,5,3h[4:3],,,4,
2h[4:3],,,3,1h[4:1],,,,

8,87,7,76,6,65,5,54,
4,43,3,32,2,21,1,18,
{16}8,8,7,7,6,6,5,5,4,4,3,3,2,2,1,1,
7,7,5,5,3,3,1,1,{32}8,7,6,5,4,3,2,1,{4}48,
{16}5,1,6,2,7,3,8,4,7,3,6,2,5,1,4,8,
5,1,6,2,7,3,8,4,5,4,6,3,7,2,8,1,
8,1,7,2,6,3,5,4,45,45,45,45,45,45,45,45,
{4}4q5[4:1]/5,45,{16}7,8,1,2,{4}3b/6b,

{8}
2^7[8:1]/6^3[8:1],3^6[8:1]/7^2[8:1],,,,26,37,48,
3^8[8:1]/7^4[8:1],4^7[8:1]/8^3[8:1],,,,37,26,15,
2^7[8:1]/6^3[8:1],3^6[8:1]/7^2[8:1],,,,26,15,48,
1^6[8:1]/5^2[8:1],2^5[8:1]/6^1[8:1],,,,37,48,1b/5b,
3^6[8:1]/7^2[8:1],2^7[8:1]/6^3[8:1],,,,37,26,15,
2^5[8:1]/6^1[8:1],1^6[8:1]/5^2[8:1],,,,26,37,48,
3^6[8:1]/7^2[8:1],2^7[8:1]/6^3[8:1],,,,37,48,15,
4^7[8:1]/8^3[8:1],3^8[8:1]/7^4[8:1],,,,26,15,4b/8b,

3q8[8:1]/4^7[8:1],7^4[8:1]/8p3[8:1],,,,12,38,47,
6p1[8:1]/5^2[8:1],2^5[8:1]/1q6[8:1],,,,78,16,25,
3q8[8:1]/4^7[8:1],7^4[8:1]/8p3[8:1],,,,12,38,47,
6p1[8:1]/5^2[8:1],2^5[8:1]/1q6[8:1],,,,78,78,3b/4b,
1q6[8:1]/2^5[8:1],5^2[8:1]/6p1[8:1],,,,34,25,16,
8p3[8:1]/7^4[8:1],4^7[8:1]/3q8[8:1],,,,56,47,38,
1q6[8:1]/2^5[8:1],5^2[8:1]/6p1[8:1],,,,78,16,25,
{4}3/4q5[4:1],4/5<4[4:1],,8b,

2>6[4:1],7<3[4:1],2>6[4:1],7<3[4:1],
2>6[4:1],7<3[4:1],2>6[4:1],7<3[4:1],
2>6[4:1],7<3[4:1],2>6[4:1],7<3[4:1],
2>6[4:1],7<3[4:1],2b,7,
{8}2>6[4:1],2,7<3[4:1],7,2>6[4:1],2,7<3[4:1],7,
2>6[4:1],2,7<3[4:1],7,2>6[4:1],2,7<3[4:1],7,
2>6[4:1],2,7<3[4:1],7,2,2,7,7,
{4}4q5[4:1]/5,4/5<4[4:1],,8-4[8:1],

名前:
コメント:

タグ:

+ タグ編集
  • タグ:

このサイトはreCAPTCHAによって保護されており、Googleの プライバシーポリシー利用規約 が適用されます。

最終更新:2015年06月26日 22:01