どうしてこうなった

BPM EASY BASIC ADVANCED EXPERT MASTER
180 2 5 7 10+ 13+

EASY


BASIC


ADVANCED


EXPERT


MASTER

(180){8}
6,6,5,6,3,3,4,3,6,6,5,6,,,,,
3,3,4,3,6,6,5,6,3,3,4,3,,,{8}2b/7b,,

1,8,3,{16}6,5,{8}6,2,4,3,
6,4,7,1,8h[4:1],,7,,
8,1,6,{16}3,4,{8}3,7,5,6,
3,5,2,8,1h[4:1],,2,,
1,8,3,{16}6,5,{8}6,2,4,3,
6,4,7,1,8h[4:1],,7,,
8,1,6,{16}3,4,{8}3,7,5,6,
3,5,2,7,{16}4,5,4,5,4,5,4,,

{8}
6^3[8:1],6,1,1,2^7[8:1],2,5,5,
6,5,,2,4,3,,6,
4v5[8:1],4,7,7,6q3[8:1],6,4,4,
2,4,3,5,4,6,5,7,
18,2,18,7,18,2,18,7,
3,4,,6,5,6,,3,
26,15,48,15,26,37,48,1^6[4:1]/5^2[4:1],
,,,,,{16}8,1,2,3,4,,

{8}
5/6b,4,35,4,3b/4,5,46,3,
2,2,3,2,7,7,6,7,
26,4,26,8,37,5,37,1,
7,5,6,4,5,3,4,2,
1>5[8:1]/7h[4:1],1,,,2>6[8:1]/8h[4:1],2,,,
7,7,6,7,2,2,3,2,
48,37,48,37,15,26,15,2^5[4:1]/6^1[4:1],
,,,,,,,,

1s5[2:1]/6z2[2:1],,,,,,,,
16,{16}7,8,{8}7,16,34,,45,,
4z8[2:1]/7s3[2:1],,,,,,,,
38,{16}2,1,{8}2,38,56,7,{16}4,5,4,,


{8}6,7,8,1,2,3h[4:1],,2b,
1b,8b,7b,6b,,1,1,7,
6z2[4:1],,2z6[4:1],,1,1,3,2,
3,4,5,6,{16}3,4,3,,6,5,6,,

{8}4-1[8:1],4,8-5[8:1],8,4-1[8:1],4,8,8h[2:1],
,1q7[4:1],,1,,8,8,45,
34,45,56,45,34,45,56,78,
18,12,18,78,{16}6,5,6,,3,4,3,,

{8}45,,45,36,27,18,2h[4:1],3,
7h[4:1],6,2h[8:1],1,,8,8,1,
8-6[8:1],1,8-4[8:1],1,8p3[8:1],1,8<2[4:1],1,
8,,1,1,{16}6,5,6,,3,4,3,,

{8}57,,24,,6-8[8:1],6,4-2[8:1],4,
5-7[8:1],5,3p1[4:1],3,,,,8,
7,6z2[4:1],5,4,,1,,45,
46,45,35,45,{16}3,4,3,,6,5,6p3[8:5],,

{1},


{8}
3,3,4,3,7,7,8,7,
6^3[8:1],,8,1,2^7[8:1],,,,
6,6,5,6,2,2,1,2,
3,4,5^2[8:1],6,7,,1,1,
4h[8:1]/5h[8:1],,4h[8:1]/5h[8:1],,4h[8:1]/5h[8:1],,4h[8:1]/5h[8:1],,
2,3,4^1[8:1],,5^8[8:1],,,,
1h[8:1],5h[8:1],4h[8:1],8h[8:1],7h[1:1],,2h[4:3],,
,,,,,{16}1,8,7,6,5,,

{8}
3b/4b,2,5b/6b,7,3b/4b,2,5b/6b,7,
1,2h[4:1],,1,8,7h[4:1],,8,
1b,8,27,36,1-5[8:1],1h[4:1],,,
8,7h[4:1],,8,1,2h[4:1],,1,
3h[4:1],4,6h[4:1],5,3h[4:1],1,6h[4:1],8,
5,6h[4:1],,5,4,3h[4:1],,4,
1^4[8:1]/2^7[8:1],,,,7^2[8:1]/8^5[8:1],,,,
4,3h[4:1],,4,5,6h[4:1],,5,

1z5[2:1]/4s8[2:1],,,,,,,,
47,{16}6,5,{8}6,47,12,,45,,
5z1[2:1]/8s4[2:1],,,,,,,,
25,{16}3,4,{8}3,25,78,1,{16}6,5,6,,


{8}1h[8:1],7h[8:1],5h[8:1],8h[8:1],2h[8:1],4h[8:1],6h[8:1],8h[8:1],
4h[8:1],2h[8:1],1h[8:1],5b,,18,18,,
6h[4:1],8,5h[4:1],8,6h[4:1],8,3h[4:1],1,
4h[4:1],1,3h[8:1],1,{16}3,4,2,4,3,5,3,,

{8}5/6b,4b/6,3/6b,2b/6,3/6b,2b/6,1/6b,3b/4,
3/5b,3b/6,3/7b,3b/8,,18,18,,
3^5[8:1]/7^5[8:1],28,,,2^4[8:1]/6^4[8:1],17,,,
3^5[8:1]/7^5[8:1],28,,,{16}6,5,7,5,6,4,6,,

{8}1v6[8:1],1,8v3[8:1],8,2v5[8:1],2,7v4[8:1],7,
3v8[8:1],3,6v1[8:1],6,,3,3,8,
2-7[8:1],2,6-3[8:1],6,7-2[8:1],7,6-3[8:1],6,
7-2[8:1],7,6,6,{16}3,4,2,4,3,5,4,,

{8}1^7[8:1]/8^2[8:1],18,,,1^6[8:1]/8^3[8:1],18,,,
27,1^6[8:1]/8^3[8:1],27,18,,8,8,1,
7-2[8:1],7,3-6[8:1],3,2-7[8:1],2,3-6[8:1],3,
2-7[8:1],2,3,3,{16}6,5,7,5,6,4,6,,

{8}4h[8:1],3h[8:1],2h[8:1],3h[8:1],4h[8:1],5h[8:1],6h[8:1],7h[8:1],
6h[8:1],5h[8:1],4h[8:1],3h[4:1],,1,1,,
8h[8:3],1,2,3,3h[8:3],8,8,8,
45,45,45,{16}6,5,7,5,6,4,6,5,7,,

{8}1-7[8:1],,6-3[8:1],,1-4[8:1],1,8,8,
2>7[4:1],2,7<2[4:1],7,,8,8,4,
5,4,5,4,36,36,27,27,
1b/8b,1b/8b,1b/8b,{16}3,4,2,4,3,5,3,4,2,,

7,8,7,,2,1,2,,{8}78,16,25,12,
38,47,18,2b/7b,,1,1,6,
6h[4:1],5b,5b,2,2h[4:1],1b,1b,8-5[8:1],
8,1,2,{16}4,5,3,6,4,5,3,6,4,,

{8}16,25,16,25,38,47,38,47,
18,27,36,4<8[8:1]/5>1[8:1],,,,,

45,,1p5[8:1]/8q4[8:1],,1b/8b,,,{16},4q8[8:1]/5p1[8:1],
{2},{16}6,6,5,5,4,4,,,


名前:
コメント:

タグ:

+ タグ編集
  • タグ:

このサイトはreCAPTCHAによって保護されており、Googleの プライバシーポリシー利用規約 が適用されます。

最終更新:2021年04月24日 15:01