曲名 | 初音ミクの激唱 |
制作者名 | Keito |
音源 | https://www.youtube.com/watch?v=wiR4dqslt_g |
譜面動画 |
https://vimeo.com/149500900
|
制作者コメント |
クソ譜面でごめんなさい。 初投稿です。 &artist=CosMo@暴走P feat.初音ミク |
BPM | EASY | BASIC | ADVANCED | EXPERT | MASTER |
200 | - | - | - | - | 12 |
(200)
{12},1,8,1,,
{2},{4},
{12},5,4,5,,,
{2},1,2,3,4,5,6,7,8,
{2}12,34,56,78,15,48,
{8}1,8,2,7,{16}3,2,1,8,7,6,5,4,
{1}1h[1:1]/3h[1:2],5h[1:2],7h[1:2],{4}1h[4:1],,1b,1b,
{1}2^4[1:1],4^6[1:1],6^8[1:1],{2}8-4[8:1]/1-5[8:1],4-1[8:1]/5-8[8:1],
{8}1,2,1-6[32:1],8,7,8-3[32:1],4,3,4-7[32:1],5,6,5-2[32:1],
{8}84,73,62,51,62,73,1-3[32:1],8-6[32:1],1-4[32:1],8-5[32:1],1-5[32:1],8-4[32:1],
{1}2h[1:1]/6h[1:1],{2}3h[2:1]/7h[2:1],1b/8b,
{2}5^8[1:1]/4,{4}3,{8},3,2,2,2,2,{2}1,
{2}4^1[1:1]/5,{4}6,{8},6,7,7,7,7,{4}8,8,
{2}18,{6}27,2,7,{2}36,45,
{8}1h[2:1],,,{24},2,3,{8}4h[2:1],,,{24},5,6,{8}7h[2:1],,,{24},8,1,{4}23,67,
{2}1^4[1:1]/8,{4}7,{8},7,6,6,6,6,{2}5,
{2}8^5[1:1]/1,{4}2,{8},2,3,3,3,3,{4}4,4,
{2}54,{6}63,6,3,{2}72,81,
{8}5h[2:1],,,{24},6,7,{8}8h[2:1],,,{24},1,2,{8}3h[2:1],,,{24},4,5,{4}67,23,
{8}1,4,2,3,5,8,6,7,1,3,5,7,2,4,6,8,12,24,36,48,56,68,72,84,
{4}8-2[32:1]/7-3[32:1],8-6[32:1],6-4[32:1],5-8[32:1],8-4[32:1],4-1[32:1],8-5[32:2],8>5[32:1],,
{8}13,57,24,68,26,48,
{4}8-5[4:1],2v8[4:1],2-5[4:1],,,18,2-6[2:1]/6-2[2:1],3-7[4:1]/7-3[4:1],,,,
{12}1,,8,
{4}1-5[64:1]/8,8-4[64:1]/2,2-6[64:1]/7,7-3[64:1]/4,5/4-8[64:1],8/5-1[64:1],
{4}8-5[4:1],5-2[4:1],2-7[4:1],7-4[4:1],4-8[4:1],{1}8<1[2:3],{2},{4},8b,,
{1}1>4[2:7],{4}1q5[2:1],,,{8}5,5,{1}5^7[2:1],{4}7p5[2:1],,,{8}5,5,
{1}5^8[2:7],{4}5q1[2:1],,,{8}1,1,{1}1^3[2:1],{4}3p1[2:1],,,
{8}8,1-4[8:1],{4}8-5[8:1],1-3[8:1],8-4[8:1],1-5[8:1],8-6[8:1],1-4[8:1],8-3[8:1],
{4}5-8[8:1],{4}4-1[8:1],5-7[8:1],4-8[8:1],5-1[8:1],4-2[8:1],5-8[8:1],4-7[8:1],,
{8}1,8,2,7,3,6,4,5,4,5,3,6,2,7,1,8,1,1,3,3,5,5,7,7,{16}1,2,3,4,5,6,7,8,{2}1b,
{12}1,2,1,2,3,2,3,4,3,4,5,4,8,7,8,7,6,7,6,5,6,5,4,5,
{12}1,2,3,2,3,4,3,4,5,4,5,6,5,6,7,6,7,8,7,8,1,8,1,2,
{8}7-2[32:1],2-4[32:1],1-5[32:1],,8-2[32:1],7-3[32:1],6-4[32:1],,24,57,1-4[8:1]/8-5[8:1],36,18,,
{4}1^3[8:1],3^5[8:1],5^7[8:1],7^1[8:1],{8}23,67,34,56,12,78,
{12}1,2,1,2,2,2,3,4,3,4,4,4,8,7,8,7,7,7,6,5,6,5,5,5,
{12}17,78,31,42,53,64,75,86,18,27,36,45,45,36,27,18,12,34,56,78,
{8}1h[2:1]/5h[2:1],,,,{6}2h[24:1]/7h[24:1],3h[24:1]/6h[24:1],4h[24:1]/8h[24:1],{8},
{4}1-4[4:1]/8-5[4:1],4-7[4:1]/5-2[4:1],7-2[4:1]/2-7[4:1],2-5[4:1]/7-4[4:1],5-1[4:1]/4-8[4:1],,26,37,
{2}1h[1:1]/8h[1:1],,1-4[2:1]/8-5[2:1],1b/8b,
{16}
2,6,3,7,3,7,4,8,5,1,1,6,7,4,3,8,5,6,4,3,8,5,6,5,8,3,6,8,5,8,5,7,
5,8,6,1,6,7,3,8,4,1,5,7,4,6,4,6,7,3,8,6,2,7,2,1,2,7,3,1,4,7,5,8,
2,3,2,3,4,5,4,5,6,7,6,7,8,1,8,1,23,23,45,45,67,67,81,81,23,23,45,45,67,67,81,81,
2,31,8,73,4,58,7,46,5,46,5,46,3,52,6,37,2,31,8,31,2,31,8,37,21,46,83,75,41,26,58,37,
4,5,4,3,4,5,6,5,6,5,6,5,3,2,3,2,7,6,7,8,7,6,5,6,5,6,5,6,8,1,8,
1,3,2,3,2,3,2,7,6,7,8,7,6,3,4,3,4,8,1,8,1,8,1,4,5,4,3,4,5,8,7,
5,5,3,3,6,6,2-6[8:1],2,
7-3[8:1],7,1-5[8:1],1,8,8,4b/8-4[8:1],,
1-5[8:1],1,7-3[8:1],7,2-6[8:1],2,8-4[8:1],8,
1-5[8:1],1,8,8,2,2,2-6[8:1]/8b,,
7-3[8:1],7,1-5[8:1],1,8-4[8:1],8,2-6[8:1],2,
7-3[8:1],7,1-5[8:1],1,8,8,8/5b,,
12,23,34,45,56,67,78,81,12,23,34,45,56,67,78,81,,
{4}1h[4:1],,,{8}8,1,{2}7h[2:1],5h[2:1],3h[2:1],{4}1,{8}26,37,
{2}4h[2:1]/8h[2:1],1h[2:1]/5h[2:1],2b/6b,
{4}7^4[8:1],,8^3[8:1],3^6[8:1],18,27,
{8}1,5,2,6,3,7,4,8,
{2}2-6[2:1]/6-2[2:1],3-7[4:1]/7-3[4:1],
{12}1-4[4:1]/5-8[4:1],45,18,,,,2-5[4:1]/6-1[4:1],56,21,,,,3-6[4:1]/7-2[4:1],67,32,,,,4-7[4:1]/8-3[4:1],78,43,,,,
1-4[4:1]/5-8[4:1],45,18,,,,2-5[4:1]/6-1[4:1],56,21,,,,3-6[4:1]/7-2[4:1],67,32,,,,4-7[4:1]/8-3[4:1],78,43,,,,
{12}1,1,1-5[12:1],2,2,2-6[12:1],3,3,3-7[12:1],4,4,4-8[12:1],5,5,5-1[12:1],6,6,6-2[12:1],7,7,7-3[12:1],8,8,8-4[12:1],
{32}
1,2,3,4,5,6,7,8,8,7,6,5,4,3,2,1,
{16}
8h[64:1],3h[64:1],7h[64:1],4h[64:1],6h[64:1],5h[64:1],7h[64:1],4h[64:1],
8h[64:1],3h[64:1],1h[64:1],2h[64:1],8h[64:1],4h[64:1],1h[64:1],5h[64:1],
1-5[16:1],2-6[16:1],3-7[16:1],4-8[16:1],5-1[16:1],6-2[16:1],7-3[16:1],8-4[16:1],
1h[64:1]/5h[64:1],2h[64:1]/6h[64:1],3h[64:1]/7h[64:1],4h[64:1]/8h[64:1],4h[64:1]/8h[64:1],3h[64:1]/7h[64:1],2h[64:1]/6h[64:1],1h[64:1]/5h[64:1],
{16}
1>1[16:1],2>2[16:1],3>3[16:1],4>4[16:1],5>5[16:1],6>6[16:1],7>7[16:1],8>8[16:1],
{24}
6-8[24:1],8v1[24:1],1-3[24:1],{8}1-4[8:1]/4-1[8:1],1b/4b,8-5[8:1]/1v4[8:1],1b/8b,8p1[8:1],1b/8b,,
{2}1>8[1:4],,{1}1,3,5,7,
{12}1,8,1,,
{2},{4},
{12},5,4,5,,,