Live & Learn

BPM EASY BASIC ADVANCED EXPERT MASTER
172 2 4 6 10 12+

EASY


BASIC


ADVANCED


EXPERT


MASTER

(172){8}

5,5-1[8:1],,

8b,7,6,5^8[8:1],4,3,,
2/7,,3,4^1[8:1],5,6,7,,,
8,7,6,5^8[8:1],4,3,,,
8b/1-6[8:1],,7b/1-5[8:1],,6b/1-4[8:1],,5b/1,,

1,2,3,4^1[8:1],5,6,,
2/7,,6,5^8[8:1],4,3,2,,,
1,2,3,4^1[8:1],5,6,,,
8-3[8:1]/1b,,8-4[8:1]/2b,,8-5[8:1]/3b,,8/4b,,1h[1:1],,,,,,,,

7,,7,,{16}7,2,7,2,1b/8b,,


{8},
1,6,8,3,4/5,4,1,8,1/8,3,5,7,7/8,2,8,1,1/2,6,7,3,8/1,4,1-4[8:1],,8-5[8:1],,2-6[8:1],,7-3[8:1],,,,
6h[4:1],5,4,5,3h[4:1],1,2,1,7h[4:1],6,5,6,2h[4:1],3,4,3,8h[4:1],1,2,6,3h[4:1],7,8-5[8:1],,

8b/1-4[8:1],,8-5[8:1]/1b,,8b/1-4[8:1],,8b/1b,,

{16}1,8,1,,2,,4,5,4,,3,,8,,7,,3,4,3,,2,,1,2,3,,8,7,6,,{8},7/8,7,7/8,5,3/4,4,3/4,2,
{16}6,5,6,,7,,8,1,8,,8,,7,,,,1,8,1,7,2,,5,4,5,3,6,,1,,2,,7,8,6,8,7,,3,4,2,4,3,,7,8,6,,
{8}1/2,2,1/2,4,5/6,5,5/6,,2/7,4-1[4:1]/5-8[4:1],2/7,4b/5b,,,,,

8/2h[4:1],7,6h[4:1],2,3h[4:1],7,8h[4:1],
1,2h[4:1],7,6h[4:1],3,4h[4:1],5,6h[4:1],
3,2,6,8/4,,3,7,1/5,,7,2,1/8,3b/6b,,
{16}8,2,7,,

{8},
3h[8:1]/5,6,7h[4:1],3,2h[4:1],6,5h[4:1],
4,3h[4:1],6,7h[4:1],2,1h[4:1],8,7h[4:1],
2,3,7,1/5,,2,6,8/4,,6,3,4/5,2b/7b,,
{16}1,7,2,,

{8},
7h[4:1]/8,1,3h[4:1],5,6h[4:1],4,1h[4:1],5,7h[4:1],2,3h[4:1],8,5h[4:1],2,
3h[4:1],8,7h[4:1],1,3h[4:1],8,6h[4:1],4,1h[4:1],5,7h[4:1],3,4,2h[4:1],,6,7,8b/4b,,,

{8}7,,8,5,1,5,2,6,3,7,4,8,5p2[4:3],1h[5:4],,,,,,,1p6[5:4],1,,,,,,,,,
8<4[8:1],,,,{16}4,3,2,1,8b/4b,,{8},2b/6b,,,,

3/6,1-4[8:1]/8-5[8:1],,1b/8b,,,4/5,,{16}6,4,7,3,8,,
{8},1,8/2,7,2/8,1,2/8,7,2/6,7-4[8:1]/8-3[8:1],,7b/8b,,1-6[8:1]/2-5[8:1],,1b/2b,,1/8,,,,

3/6,1^4[8:1]/8^5[8:1],,1b/8b,,,4/5,,{16}3,5,2,6,1,,
{8},4,3/5,6,3/5,4,3/5,6,3/5,1-6[8:1]/2-5[8:1],,1b/2b,,7-4[8:1]/8-3[8:1],,8b/7b,,8b/1b,,,,

3/6,1-5[8:1]/8-4[8:1],,1b/8b,,,4/5,,{16}2,5,1,5,8,,
{8},1/8,3/5,2/7,4/6,3/8,1/5,7/4,2/6,8b/4b,7,2b/6b,3,
{16}4b/8b,7,6,5,4-8[8:1]/8b,,{8},2,,,,

3/6,8-3[8:1]/1-6[8:1],,1b/8b,,,3/6,,{16}7,4,8,4,1,,
{8},1/8,4/6,2/7,3/5,1/6,4/8,2/5,3/7,1b/5b,2,3/7,6,
{16}1b/5b,2,3,4,5-1[1:1.75]/1b,,{8},8h[1:1.75],,,,,,,,,,,,,,,,

1b/5b,3b/7b,,,,,,,{16}7,1,8,1,7,1,8,1,5,3,4,3,5b,,
{8},
8/2,5,7/1,4,8/2,5,1-6[8:1]/7,,1^4[8:1],,1-5[8:1],,1^6[8:1],,,,
8/2,5,7/1,4,8/2,5,7/1^4[8:1],,8b/1-6[8:1],,1-5[8:1]/2b,,1^6[8:1]/7b,,3b,,
1/7,4,8/2,5,1/7,4,8-3[8:1]/2,,8^5[8:1],,8-4[8:1],,8^3[8:1],,,,
1/7,4,8/2,5,1/7,4,8^5[8:1]/2,,1b/8-3[8:1],,8-4[8:1]/7b,,8^3[8:1]/2b,,6b,,7<1[1:1]/8p8[1:1],,,,,,,,,,,,

{16}7,2,7,2,1b/8b,,{8},2/6,1/5,8/4,7/3,4/8,5/1,2/6,
{1}3b/7b,,,,E

名前:
コメント:

タグ:

+ タグ編集
  • タグ:

このサイトはreCAPTCHAによって保護されており、Googleの プライバシーポリシー利用規約 が適用されます。

最終更新:2021年08月21日 22:31