Glorious Crown

BPM EASY BASIC ADVANCED EXPERT MASTER
225 4 6 9+ 12+ 14+

EASY


BASIC

(225.5){1},,
{4}1,1,1,,
{4}8,8,8,,
{4}1,1,1,,
{4}8,8,8,,
{4}1/2,1/2,1/2,,
{4}7/8,7/8,7/8,,
{4}1,1,8,8,
{4}1/8,1/8,1/8,,
{1}2/7,,
{1}1-4[4:3],,
{1}8-5[4:3],,
{1}2-5[4:3],,
{1}7-4[4:3],,
{2}1,1,
{2}2,2,
{2}3,3,
{2}4,4,
{2}5,5,
{2}6,6,
{2}7,7,
{2}8,8,
{2}1,1b/8b,
{4}8,8,7,,
{4}6,6,4/5,,
{4}1,1,2,,
{4}3,3,4/5,,
{4}5,5,6,,
{4}7,7,1/8,,
{4}4,4,3,,
{4}2,2,1/8,,
{4}2,1,2,1,
{4}2,1,2,,
{4}7,8,7,8,
{4}7,8,7,,
{4}1,8,1,8,
{4}2,7,2,,
{4}4,5,4,5,
{4}3,6,3b,,
{4}5,5,5,5,
{4}6,6,5/6,,
{4}7,7,7,7,
{4}8,8,1/8,,
{4}1,1,1,1,
{4}2,2,1/2,,
{4}3,3,3,3,
{4}4,4,4b/5b,,
{4}4,4,4,4,
{4}3,3,3/4,,
{4}2,2,2,2,
{4}1,1,1/8,,
{4}8,8,8,8,
{4}7,7,7/8,,
{4}6,6,6,6,
{4}5,5,4/5,,
{1}3h[2:1]/6h[2:1],
{1}4-1[4:3]/5-8[4:3],,
{1}1-6[4:3]/2-5[4:3],,
{1}7-4[4:3]/8-3[4:3],,
{2}4/5,4/5,
{4}4/5,4/5,3/6,,
{4}3,3,3,,
{4}3,3,3/4,,
{4}6,6,6,,
{4}6,6,5/6,,
{4}4/5,4/5,4/5,,
{4}4/5,4/5,3/6,,
{2}4/5,3/6,
{2}2/7,1/8,
{1}1^4[4:3]/8^5[4:3],,,,
{1}1,
{1}1,
{1}8,
{1}8,
{1}1/8,
{1}2h[2:1]/7h[2:1],
{2}1/8,1/8,
{2}2/7,2/7,
{2}3/6,3/6,
{2}4/5,4b/5b,
{4}4,4,5,5,
{4}6,6,5/7,,
{4}5,5,4,4,
{4}3,3,2/4,,
{4}1,1,2,2,
{8}3,,3,,4,4,4,,
{4}5,5,6,6,
{8}7,,7,,8,8,8,,
{4}7,7,8,8,
{8}1,,1,,2,2,2,,
{8}1,,1,,8,8,8,,
{8}7,,7,,6,6,6,,
{8}5,,5,,4,4,4,,
{8}3,,3,,2,2,2,,
{8}1,,1,,1/8,1/8,1/8,,
{1}1h[2:3]/8h[2:3],,
{1}2h[1:2]/7h[1:2],,,
E

ADVANCED

(225.5){1},,
{4}3,4,3,2/5,
{4}6,5,6,4/7,
{4}3,2,1,7/8,
{4}6,7,8,1/2,
{4}3,3/4,6,5/6,
{4}3,2/4,6,5/7,
{4}1/2,1/2,7/8,7/8,
{4}1/3,1/3,6/8,6/8<1[1:1],{1},
{8},,,,1,1,8,8,
{1}1bp3[2:1],
{1}4p6[2:1],
{1}7p1[2:1],
{2}2h[2:1],1h[2:1],
{1}8q6[2:1],
{1}5q3[2:1],
{1}2q8[2:1],
{2}7h[2:1],8h[2:1],
{4}1,1,1,1,
{4}8,8,8,8,
{4}7,7,6,6,
{4}5,5,4,4,
{4}3,2,1,7/8,
{4}6,7,8,1/2,
{4}3,2/4,6,5/7,
{4}3,1/3,6,6/8,
{4}1,1-4[4:1]/8-5[4:1],,,
{4}3,4,5,6,
{8}7,7,1,,2,2,8,,
{4}3,4,5,6,
{4}7/8,1/6,2/5,3/4,
{4}5,6,7,3/8,
{4}4,3,2,1/6,
{8}7,7,1,,2,2,8,,
{4}1/2,3/8,4/7,5/6,
{4}4/5,3/4,4/5,2/4,
{4}4/5,5/6,4/5,5/7,
{4}4/5,2/3,4/5,1/3,
{4}4/5,6/7,4/5,6/8,
{4}1,2/8,3/7,4/6,
{4}8,1/7,2/6,3/5,
{2}2h[4:1]/4h[4:1],5h[4:1]/7h[4:1],
{4}1/2,7/8,4/5,2b/7b,
{8}3,,2/4,,1,1,8,,
{8}6,,5/7,,8,8,1,,
{8}3,,2/4,,1,1,8,,
{4}5/7,4/6,3/5,2/4,
{4}1,2/8,1,3/7,
{4}8,1/7,8,2/6,
{8}3,3,4,,6,6,5,,
{4}4/5,4-1[4:1]/5-8[4:1],,,
{8}6,,5/7,,8,8,1,,
{8}3,,2/4,,1,1,8,,
{8}6,,5/7,,8,8,1,,
{4}2/4,3/5,4/6,5/7,
{4}8,1/7,8,2/6,
{4}1,2/8,1,3/7,
{8}2,2,8,,7,7,1,,
{8}3,3,4,,6,6,5,,
{8}2,2,1,,7,7,8,,
{1}2q6[2:1],
{1}7p3[2:1],
{1}2p5[2:1],
{1}7q4[2:1],
{4}3,3/4,3,2/5,
{4}6,5/6,6,4/7,
{4}3,2/4,6,5/7,
{4}4/5,3/6,2/7,1b/8b,
{4}2,3/4,4/5,5/6,
{4}7,5/6,4/5,3/4,
{4}1,2/5,3/6,4/7,
{4}8,4/7,3/6,2/5,
{4}3/4,2/5,1/6,7/8,
{4}5/6,4/7,3/8,1/2,
{2}3h[2:1],4h[2:1],
{2}5h[2:1],6h[2:1],
{1}7pp2[4:5],,
{1}3pp6[4:5],,
{2}7/8,1/8,
{2}1/2,2/3,
{2}3/4,4/5,
{2}5/6,6/7,
{2}7/8,1h[1:1],
{4}8h[2:1],,,1b/8b,
{4}3/4,3/4,4/5,4/5,
{4}5/6,5/6,4/7,4/7,
{4}3/6,3/6,2/5,2/5,
{4}3/4,4/5,5/6,2b/7b,
{8}1/2,,3/8,,7,7,5,,
{8}7/8,,1/6,,2,2,4,,
{8}3,3,8,,6,6,1,,
{8}8,8,2,2,7,7,1,,
{8}3/5,3/5,3/5,,4/6,4/6,4/6,,
{8}2/5,2/5,2/5,,4/7,4/7,4/7,,
{8}1/6,1/6,1/6,,3/8,3/8,3/8,,
{8}1,1,7,7,2,2,8,,
{8}3,3,7,7,1,1,8,,
{8}6,6,2,2,8,8,1,,
{8}2/8,2/8,2/8,,1/7,1/7,1/7,,
{8}6,6,4,4,8,8,1,,
{8}3,3,5,5,1,1,8,,
{8}5/7,5/7,5/7,,2/4,2/4,2/4,,
{8}6/8,6/8,6/8,,1/3,1/3,1/3,,
{1}4bqq1[4:5]/5bpp8[4:5],,
{8}3,3,8,8,1,1,6,6,
{8}1,2,3,4,5,6,7,8,
{1}1b,
E

EXPERT


(225.5)
{8}
27,,8,,1,,2,2,
1,,8,,7^2[8:1],,,,
3,,4,,5,,6,6,
5,,4,,3^6[8:1],,,,
7,,8,,12,12,12,,
3,,4,,56,56,56,,
28,28,28,,46,46,46,,
1,8,2,7,3,6,4,5,
4-8[4:1],,,,5-1[4:1],,,,
2^7[4:1],,,,6,5,4,3,
2b/7b,,56,,34,,2,1,
2,,12,,38,,47,,
56,,34,,56,,7,8,
7,,78,,16,,25,,
{4}
3h[1:1]/4,4,5,6,6h[1:1],5,4,3,
2,13,48,57,6V42[2:1]*V82[2:1],,,,
1b/8b,2,3,4,5,6,7,8,
13,6,57,3,24,7,68,2,
13,48,57,6,68,15,24,3,
38,56,16,34,
{16}
38,,,2,,,2,,16,,,7,,,7,,
36,,,27,,,1-5[8:1]/8,,
{8}
1b/8b,,,,7,8,6,,3,4,2,,
8-4[8:1],,2-5[8:1],,7-4[8:1],,1,,
2,1,3,,6,5,7,,
1-5[8:1],,7-4[8:1],,2-5[8:1],,8,,
7,1,7,1,7^4[8:1],,,,
2,8,2,8,2^5[8:1],,,,
7h[4:1],,1h[4:1],,3h[4:1],,6,,
6^1[4:1],,1^4[4:1],,4b,,,,
1,1,5,5,3,3,7,7,
4,4,8,8,2,2,6,6,
1,5,2,6,3,7,48,,
8,4,7,3,6,2,15,,
1,8,7,6,5,4,3,,
8,1,2,3,4,5,6,,
7-4[8:1]/8,,2,,1/2-5[8:1],,7,,
{16}
16,,,38,,,45,,
{8}
4b-1[8:1]/5b-8[8:1],,,,
27,,3,4,3,,7,8,
7-3[8:1],,1,,2-6[8:1],,8,,
47,,6,5,6,,2,1,
2-6[8:1],,8,,7-3[8:1],,1,,
25,,68,,2,1,2,,
47,,13,,7,8,7,,
34,,71,,56,,81,,
3>6[8:3]/4p5[8:3],,,,,,,,
2b/7b,,1,5,4,,5,2,
8-3[8:1],,2-5[8:1],,7-4[8:1],,1-6[8:1],,
8,,7,3,4,,3,7,
1-6[8:1],,7-4[8:1],,2-5[8:1],,7-3[8:1],,
1,,17,,8,8,1b/7b,,
5,,28,,1,1,2b/8b,,
7,7,3,3,6,6,2,2,
{16}
15,,,6,,,7,,48,,,3,,,2,,
15,,,6,,,7,,48,,,3,,,2,,
{4}
1bpp4[4:5]/5bpp8[4:5],,,,,,,48,
4bqq1[4:5]/8bqq5[4:5],,,,,,,15,
{12}
1b/5b,,,67,,,2,1,2,1,,,
4b/8b,,,23,,,6,5,6,5,,,
3,5,3,5,,,1,7,1,
{4}
7-3[8:1],8-4[8:1],1-5[8:1],2-6[8:1],,
7h[6:1]/8h[6:1],7h[6:1]/8h[6:1],7h[6:1]/8h[6:1],78,
1h[6:1]/2h[6:1],1h[6:1]/2h[6:1],1h[6:1]/2h[6:1],12,
6h[6:1]/8h[6:1],6h[6:1]/8h[6:1],6h[6:1]/8h[6:1],68,
1h[6:1]/3h[6:1],1h[6:1]/3h[6:1],1h[6:1]/3h[6:1],13,
{12}
7b,8,7,8,7,8,7,8,7,8b,,,
2b,1,2,1,2,1,2,1,2,1b,,,
{8}
8,1,2,3,4,5,6,7,
{16}
8,7,6,5,4,3,2,1,8,7,6,5,4,3,2,1,
{4}
8b^5[4:3],,4,,4^1[4:3],,8,,8^5[4:3],,4,,4^1[4:3],,8,,
8^5[4:3],2,3,4,4^1[4:3],6,7,8,8^5[4:3],2,3,4,
{16}
4h[2:1],,,6,,,6,,5h[2:1],,,3,,,3,,
{2}
4^1[4:1],8^5[4:1],4>5[2:1],,
{8}
2b/7b,,45,,6,3,6,3,7,2,7,2,8,1,8,1,
27,27,27,27,36,36,36,36,
45,45,45,4-1[8:1]/5-8[8:1],4b/5b,,,,
27,,2,1,2,8,2,,
36,,6,5,6,4,6,,
12,12,12,,78,78,78,,
5q4[8:3]/6<3[8:3],,,,,,,,
2b,1,3,8,2,1,3,8,
2,7,17,2,28,7,17,,
6,5,7,4,6,5,7,4,
6,3,35,6,46,3,35,,
7,8,6,1,7,8,16,,
3,4,2,5,3,4,25,,
16,,37,37,48,48,37,37,
2-4[8:1]/6,,8-6[8:1],,1-5[8:1],,8b,,
3/7-5[8:1],,1-3[8:1],,8-4[8:1],,1b,,
1,8,7,6,5,4,3,2,
{16}
1,2,3,4,5,6,7,8,1,2,3,4,5,6,7,8,
{1}
1h[4:7]/5h[4:7],,
{8}
4b/5b,45,36,36,27,27,18,18,
{16}
1,8,1,8,1,8,1,8,1,8,1,8,1-5[8:1],8,1,8,

MASTER


(225.5)
{12}
3,4,3,6,5,6,3,4,3,7,,7,
3,4,3,6,5,6,3,4,3,8,,,
6,5,6,3,4,3,6,5,6,2,,2,
6,5,6,3,4,3,6,5,6,1,,,
3,4,3,6,5,6,3,4,3,8,,1,
6,5,6,3,4,3,6,5,6,1,,8,
3,4,3,8,,1,6,5,6,1,,8,
{16}
1,2,3,4,8,7,6,5,1,2,3,4,8,7,6,5,
{24}
1b,2,3,4,5,6,7,8,1,2,3,4,5,6,7,8,1,2,3,4,5,6,7,8,
1,2,3,4,5,6,7,8,1,2,3,4,
{8}
6b,6,2,2,
8h[8:5],,,,,4,4,6,
{4}
2^5[4:1],5^8[4:1],8^3[4:1],3^6[4:1],
{8}
7h[8:5],,,,,4,4,6,
{4}
2^7[4:1],7^4[4:1],4^1[4:1],8,
7h[4:1],5h[4:1],3h[4:1],1h[4:1],
{16}
8,,,27,,,18,,
{4}
18,,78,16,25,34,
4-8[4:1],8-4[4:1],4-2[8:1]*-6[8:1],,
{8}
1h[8:5],,,,,5,5,3,
{4}
7^4[4:1],4^1[4:1],1^6[4:1],6^3[4:1],
{8}
1h[8:5],,,,,5,5,3,
{4}
7^2[4:1],2^5[4:1],5^8[4:1],1,
2h[4:1],4h[4:1],6h[4:1],8h[4:1],
{16}
1,,,27,,,18,,
{4}
18,,
{8}
1,1,8,8,2,2,7,7,
{16}
1,8,1,8,1,8,1,8,1,8,1,8,1,8,1,8,
{32}
1,2,3,4,5,6,7,8,1,2,3,4,5,6,7,8,
{4}
1b,,
{8}
8-3[8:1]*-5[8:1],17,8,,4-1[8:1]*-7[8:1],35,4,,
8,8,1,1,6-2[8:1],6,3,,
4>8[4:1],4,8<4[4:1],8,4-8[4:1],4,7,,
5,5^8[8:1],5,
{24}
4,3,2,
{16}
1,,,6,,,
{8}
7,1^4[8:1],1,
{24}
8,7,6,5,,,
{8}
2,2,8,,7,4^1[8:1],4,
{24}
5,6,7,8,,,
{8}
3,8,2,4>8[4:1],4,8<4[4:1],8,4,4,8,,
6h[4:1],1,3h[4:1],8,6h[4:1],1,3,,
4^1[8:1],4,6^1[8:1],6,5-1[8:1],5,6^1[8:1],6,
4^1[8:1],4,5q1[8:1],5,4^1[8:1],4,6^1[8:1],6,
4-1[8:1],4,6-1[8:1],6,5p1[8:1],5,6^1[8:1],6,
4^1[8:1],4,5w1[8:1],5,5,,,,
{4}
1-3[8:1]/5-7[8:1],15,4-2[8:1]/8-6[8:1],48,
1-4[8:1]/5-8[8:1],15,
{16}
6,,,7,,,
{8}
8,4,3,2,1,8,7,6,5,
{16}
2b/4b,,,5b/7b,,,1b/8b,,
{32}
5,4,3,2,1,8,7,6,
{4}
5b,
{16}
3,,7,,4,5,4,5,4,,6,,1,8,1,8,
1,2,3,4,8,7,6,5,2,3,4,5,7,6,5,4,
2,,6,,4,5,4,5,4,,7,,2,1,2,1,
2,3,4,5,7,6,5,4,1,2,3,4,8,7,6,5,
{8}
3^1[8:1],3,5-1[8:1],5,4-8[8:1],4,6^8[8:1],6,
{16}
1,,,2,,,38,,
{2}
3qq1[8:1]/8qq6[8:1],
{16}
2,3,4,5,8,7,6,5,1,2,3,4,7,6,5,4,
{8}
2,2,4-2[8:1],4,
{16}
4-6[8:1],,,4-8[8:1],,,4,,
{16}
7,,3,,5,4,5,4,5,,3,,8,1,8,1,
8,7,6,5,1,2,3,4,7,6,5,4,2,3,4,5,
7,,3,,5,4,5,4,5,,2,,7,8,7,8,
7,6,5,4,2,3,4,5,8,7,6,5,1,2,3,4,
{8}
6^8[8:1],6,4-8[8:1],4,5-1[8:1],5,3^1[8:1],3,
{16}
8,,,7,,,16,,
{2}
1pp3[8:1]/6pp8[8:1],
{8}
4b,4,5,5,3,3,6,6,
{16}
2b,7,2,7,2,7,2,7,1,8,1,8,1,8,1,8,
{24}
1b,2,3,4,5,6,7,8,1,2,3,4,8b,7,6,5,4,3,2,1,8,7,6,5,
{12}
1b,2,3,8,7,6,1,2,3,8,,8,
4,3,2,5,6,7,4,3,2,18,,,
8,7,6,1,2,3,8,7,6,1,,1,
5,6,7,4,3,2,5,6,7,18,,,
2,3,4,7,6,5,2,3,4,8,,8,
2,3,4,7,6,5,1,1,1,8,,,
7,6,5,1,,1,8,8,8,1,,,
3b/7b,6,5,4b/8b,3,2,1b/5b,8,7,2b/6b,,,
8b-4[8:1],,,18,,,1b-5[8:1],,,18,,7,
7b-3[8:1],,,78,,,1b-5[8:1],,,18,,,
7b-3[8:1],,,78,,,2b-6[8:1],,,12,,8,
8b-4[8:1],,,18,,,2b-6[8:1],,,12,,,
{4}
1b^4[8:1]*^6[8:1],1b,1bw5[8:1],1b,
8b^3[8:1]*^5[8:1],8b,8bw4[8:1],8b,
{16}
6b,7,8,1,2,3,4,5,6,7,8,1,2,3,4,5,
{24}
1b,8,7,6,5,4,3,2,1,8,7,6,5,4,3,2,1,8,7,6,5,4,3,2,
{2}
1b,6,4,6,8,3,5,3,
{8}
5,4,5,6,
{16}
3,,,7,,,
{8}
4,4,5,4,3,
{16}
6,,,2,,,
{8}
5,5,4,5,6,3,4,5,6,
{16}
4,,,2,,,5,,5,,,7,,,4,,
{2}
4,27,1b/8b,
{8}
8,8,7,6,
{4}
4b/5b,,
{8}
,4,4,3,
{4}
2,7,3,6,45,,
{8}
,5,5,6,
{4}
7,3,5w1[8:1],5b,
{8}
7^5[8:1],7,1-5[8:1],1,8-4[8:1],8,2^4[8:1],2,
{16}
5,,,6,,,27,,
{2}
2v3[8:1]/7v6[8:1],
{16}
4,3,2,1,5,6,7,8,3,2,1,8,6,7,8,1,
{8}
3,3,5-2[8:1],5,
{16}
5-8[8:1],,,5,,,1b,,
2,7,2,7,2,7,2,7,1,8,1,8,1,8,1,8,
1,2,3,4,7,6,5,4,2,3,4,5,8,7,6,5,
2,7,2,7,3,6,3,6,2,7,2,7,1,8,1,8,
1,2,8,7,2,3,7,6,2,3,7,6,3,4,6,5,
4,6,4,6,3,5,3,5,2,6,2,6,3,7,3,7,
2,6,2,6,1,5,1,5,2,6,2,6,3,7,3,7,
4,8,4,8,3,7,3,7,4,6,4,6,3,7,3,7,
{24}
2b,1,8,7,6,5,4,3,2,1,8,7,6,5,4,3,2,1,8,7,6,5,4,3,
7b,8,1,2,3,4,5,6,7,8,1,2,3,4,5,6,7,8,1,2,3,4,5,6,
3b,2,1,8,7,6,5,4,3,2,1,8,7,6,5,4,3,2,1,8,7,6,5,4,
{32}
8b,1,2,3,4,5,6,7,8,1,2,3,4,5,6,7,8,1,2,3,4,5,6,7,8,1,2,3,4,5,6,7,
{1}
8h[4:15]/4h[4:7],,1h[4:7],,
2b/7b,

,,

E

  • 変なところあったら勝手に直してください -- 名無しさん (2016-07-23 21:42:57)
  • 紫初めの12分に交互でないところがあったので修正 -- 名無しさん (2016-12-12 21:43:00)
名前:
コメント:

タグ:

+ タグ編集
  • タグ:
最終更新:2022年05月06日 04:17