儚きもの人間

アーティスト 豚乙女

BPM EASY BASIC ADVANCED EXPERT MASTER
180 3 5 7+ 9+ 13

EASY


BASIC

(180.0){1}1h[2:3],,
{1}8h[2:3],,
{1}2h[2:3],,
{1}7h[2:3],,
{2}1,1,
{4}2,2,2,,
{2}3,3,
{4}4,4,4,,
{2}5,5,
{4}6,6,6,,
{2}7,7,
{4}8,8,8,,
{2}8,8,
{2}7/8,7/8,
{1}8-4[4:3],,
{2}1,1,
{2}1/2,1/2,
{1}1-5[4:3],,
{2}8,8,
{2}7,7,
{2}6,6,
{2}5,5,
{1}3h[2:1]/4h[2:1],
{1}5h[2:1]/6h[2:1],
{1}4-1[4:3]/5-8[4:3],,
{4}1,1,1,1,
{4}2,2,2,,
{4}3,3,3,3,
{4}4,4,4,,
{4}5,5,5,5,
{4}6,6,6,,
{4}7,7,7,7,
{1}1h[2:1]/8h[2:1],
{1}1-6[4:3],,
{1}8-3[4:3],,
{1}2h[1:2]/7h[1:2],,,,
{1}1/8,
{1}2/7,
{1}1/2,
{1}2/8,
{1}7/8,
{1}1/7,
{2}1,8,
{1}2b/7b,
{4}2,2,3,3,
{4}4,4,4/5,,
{4}5,5,6,6,
{4}7,7,7/8,,
{4}1,1,2,2,
{4}3,3,3/4,,
{2}3/5,4/6,
{1}3h[2:1]/6h[2:1],
{1}4-7[4:3],,
{1}5-2[4:3],,
{2}1,1,
{2}2,2,
{2}3,3,
{4}4,4,4,,
{2}5,5,
{2}6,6,
{2}7,7,
{4}8,8,8,,
{1}1-5[4:3],,
{1}8-4[4:3],,
{1}2-6[4:3],,
{1}7-3[4:3],,
{1}1/8,
E

ADVANCED

(180.0){8}3h[4:1]/4h[4:1],,,3/4,,,3h[4:1]/4h[4:1],,
{8},3/4,,,3/4,,3/4,,
{8}5h[4:1]/6h[4:1],,,5/6,,,5h[4:1]/6h[4:1],,
{8},5/6,,,5/6,,5/6,,
{8}3h[4:1]/4h[4:1],,,3/4,,,3h[4:1]/4h[4:1],,
{8},3/4,,,2/4,,2/4,,
{8}5h[4:1]/6h[4:1],,,5/6,,,5h[4:1]/6h[4:1],,
{8},5/6,,,5/7,,5/7,,
{4}3,3,4,4,
{4}3,4,2/5,,
{4}6,6,5,5,
{4}6,5,4/7,,
{4}2,2,1,1,
{4}2,1,3/8,,
{4}6h[4:1],5,3h[4:1],4,
{4}5/6,4/7,3/8,,
{4}2h[2:1],,1,1/2,
{4}7h[2:1],,8,7/8,
{4}2h[2:1],,1,1/3,
{4}7h[2:1],,8,6/8,
{4}3h[2:1],,1,1/2,
{4}6h[2:1],,8,7/8,
{1}3>6[4:3],,
{4}6h[4:3],5,5,5,
{4}3h[4:3],4,4,4,
{4}6h[4:3],5,5,5,
{4}3h[4:3],4,4,4,
{4}7h[4:3],5,5,5,
{4}2h[4:3],4,4,4,
{1}7<2[4:3],,
{4}2,1,2,1,
{4}3/8,4/7,5/6,,
{4}7,8,7,8,
{4}1/6,2/5,3/4,,
{4}6,5,6,5,
{4}4/7,3/8,1/2,,
{4}7h[4:1],8,2h[4:1],1,
{4}1/8,1/8,2b/7b,,
{8}2h[4:1]/4h[4:1],,,2/4,,,2h[4:1]/4h[4:1],,
{8},2/4,,,4/5,,4/5,,
{8}5h[4:1]/7h[4:1],,,5/7,,,5h[4:1]/7h[4:1],,
{8},5/7,,,4/5,,4/5,,
{1}1-5[2:1],
{1}8-4[2:1],
{1}1s5[4:3],,
{8}1/8,1/8,,,,,,,
{4}7,6,5,,
{8}1/8,1/8,,,,,,,
{4}2,3,4,,
{8}1/8,1/8,,,,,,,
{4}2/7,3/6,4/5,,
{8}1/8,1/8,,,,,,,
{4}4/5,3/6,2/7,,
{4}3,3/4,6,5/6,
{4}3,3/4,1/6,,
{4}6,5/6,3,3/4,
{4}6,5/6,3/8,,
{4}3,3/4,6,5/6,
{4}3,3/4,1/6,,
{4}7,6/8,2,1/3,
{1}2b/7b,
{8}1h[4:1]/3h[4:1],,,1/3,,,1h[4:1]/3h[4:1],,
{8},1/3,,,1/2,,1/2,,
{8}6h[4:1]/8h[4:1],,,6/8,,,6h[4:1]/8h[4:1],,
{8},6/8,,,7/8,,7/8,,
{1}1>8[4:5],,
{4}2,3,4,5,
{4}6,7,1/8,,
{4}7,6,5,4,
{4}3,2,1/8,,
{4}1/8,1/8,2/7,2/7,
{4}3/6,3/6,4/5,,
{8}3h[4:1]/4h[4:1],,,3/4,,,5h[4:1]/6h[4:1],,
{8},5/6,,,1/8,,1/8,,
{8}1h[4:1]/2h[4:1],,,1/2,,,7h[4:1]/8h[4:1],,
{8},7/8,,,2/7,,2/7,,
{8}2h[4:1]/4h[4:1],,,2/4,,,5h[4:1]/7h[4:1],,
{8},5/7,,,1/8,,1/8,,
{8}1h[4:1]/3h[4:1],,,1/3,,,6h[4:1]/8h[4:1],,
{8},6/8,,,2/7,,2/7,,
{1}1pp4[4:7]/8qq5[4:7],,,
E

EXPERT

(180.0){8}2h[8:3],,,3h[8:3],,,4h[8:3],,
{8},5h[8:3],,,6,,5/7,,
{8}7h[8:3],,,6h[8:3],,,5h[8:3],,
{8},4h[8:3],,,3,,2/4,,
{8}3h[8:3],,,5h[8:3],,,6h[8:3],,
{8},8h[8:3],,,1,,2/7,,
{8}6h[8:3],,,4h[8:3],,,3h[8:3],,
{8},1h[8:3],,,8,,2b/7b,,
{4}8,1/7,7,6/8,
{8}6,5,6,5,6,,4/7,,
{4}1,2/8,2,1/3,
{8}3,4,3,4,3,,2/5,,
{8}7,8,1/7,,2,1,2/8,,
{8}3,6,4,5,3,,1/8,,
{4}1/2h[4:1],3,6/5h[4:1],4,
{4}1/8,2/7,3/6,4b,
{8}6,5,6,5,6,,4/7,,
{8}2,1,3,8,4,7,5,6,
{8}5^2[8:1],,,8,8pp4[2:1],,,,
{4},,,1/8,
{8}3,4,3,4,3,,2/5,,
{8}7,8,6,1,5,2,4,3,
{1}4qq6[2:1],
{8}3,,4,,5,4,3/6,,
{8}2,1,2,1,2,,3/8,,
{8}5,4,6,2,8,1,7,3,
{8}5^8[8:1],,,1,1qq5[2:1],,,,
{4},,8,1/7,
{16}2h[16:3],,,3h[16:3],,,4,,4,,,,1/8,,,,
{16}7h[16:3],,,6h[16:3],,,5,,5,,,,1/8,,,,
{1}3bq6[2:1],
{1}1bpp4[2:1]/8bqq5[2:1],
{8}1/2,1/2,3/8,,7/8,7/8,1/6,,
{4}2-6[8:1],7-3[8:1],1-5[8:1],8,
{8}7/8,7/8,1/6,,1/2,1/2,3/8,,
{4}7-3[8:1],2-6[8:1],8-4[8:1],1,
{8}5/6,5/6,4/7,,3/4,3/4,2/5,,
{4}6-2[8:1],3-7[8:1],5-1[8:1],4,
{4}2h[4:1],4h[4:1],6h[4:1],8h[4:1],
{1}1<5[4:1]*>5[4:1],
{8}3,4,3,6,5,6,3,4,
{8}3,6,5,6,1b/8b,,2b/7b,,
{8}2,1,2,7,8,7,2,1,
{8}2,7,8,7,4/5,,3/6,,
{8}1/2h[8:3],,,4h[8:3],,,5,,
{8}8/7h[8:3],,,5h[8:3],,,4,,
{8}8/1h[8:3],,,3h[8:3],,,4,,
{8}1/8h[8:3],,,6h[8:3],,,5,,
{1}4b/7b,
{8}2/5,,,,3,4,3,,
{8}2/5,2/5,,,,,,,
{8}4/7,,,,6,5,6,,
{8}3/8,3/8,,,,,,,
{8}1/6,,,,7,8,7,,
{4}7h[4:1],5h[4:1],3h[4:1],1h[4:1],
{1}8b<4[4:1]*>4[4:1],
{8}2,1,2,1,4,5,4,5,
{4}8-3[8:1],6-2[8:1],4-1[8:1],7,
{8}7,8,7,8,5,4,5,4,
{4}1-6[8:1],3-7[8:1],5-8[8:1],1,
{8}1,6,2,7,3,8,4,1,
{4}5-1[8:1],7-3[8:1],2-6[8:1],8,
{4}8p4[8:1],1,1q5[8:1],8,
{1}8pp4[2:1]*qq4[2:1],
{8}1,1,1,3,3,3,5,5,
{8}5,7,7,7,1b-5[8:1],,8b,,
{8}8,8,8,6,6,6,4,4,
{8}4,2,2,2,8-4[8:1],,1,,
{8}2,1,2/8,,6,5,4/7,,
{8}7,8,1/7,,3,4,2/5,,
{8}2,1,3,7,5,6,4,8,
{8}1/2,1/2,3/8,3/8,4/7,4/7,5/6,,
{8}7,8,1/7,,3,4,2/5,,
{8}2,1,2/8,,6,5,4/7,,
{8}7,8,6,2,4,3,5,1,
{8}7/8,7/8,1/6,1/6,2/5,2/5,3/4,,
{8}3,5,4,6,4,5,3,5,
{8}4,6,4,5,1-5[8:1],,8,,
{8}7,4,5,2,5,4,7,4,
{8}5,2,5,4,8-4[8:1],,1,,
{8}2,6,4,7,3,5,2,6,
{8}4,7,3,5,1-5[8:1],,8,,
{8}8,3,5,1,6,4,8,3,
{8}5,1,6,4,8-4[8:1],,1,,
{1}1b>8[4:11],,,
{8},,,,,,4,5,
E

MASTER

(180)
{8}
24,3,4,68,7,6,13,2,
3,57,6,5,3-8[8:1]/4-7[8:1],,34,,
57,6,5,13,2,3,68,7,
6,24,3,4,5-2[8:1]/6-1[8:1],,56,,
34,2,5,56,4,7,78,6,
1,12,8,3,3-8[8:1]/4-7[8:1],,34,,
56,7,4,34,5,2,12,3,
8,78,1,6,56,4,3,2,

1h[2:1],8,7,6,5h[2:1],4,3,2,
1,28,37,46,5^2[8:1]*p1[8:1],,,,
8h[2:1],1,2,3,4h[2:1],5,6,7,
8,17,26,35,4^7[8:1]*q8[8:1],,,,
1h[2:1],8,7,6,5h[2:1],4,3,2,
1pp3[8:1],1,5pp7[8:1],5,1,,36,27,
{16}
1^4[8:1]/8^5[8:1],,,,18,,,,23,,,67,,,18,,
1^3[8:1]/8q4[8:1],,,,1p5[8:1]/8^6[8:1],,,,18,,,,4,5,4,,

{8}
2^5[8:1],7,2,7,5-1[8:1],6,5,6,
1v6[8:1],8,1,8,6^3[8:1],7,6,7,
3v8[8:1],4,3,4,8-4[8:1],7,8,7,
{16}
4qq1[4:1],,5,,4,,5,,6,,7,,8,1,8,,
{8}
7^4[8:1],2,7,2,4-8[8:1],3,4,3,
8v3[8:1],1,8,1,3^6[8:1],2,3,2,
6v1[8:1],5,6,5,1-5[8:1],2,1,2,
{16}
5pp8[4:1],,4,,5,,4,,3,,2,,1,8,1,,
{8}
3^8[8:1],6,3,6,8-4[8:1],7,8,7,
4v7[8:1],5,4,5,7^2[8:1],6,7,6,
2v5[8:1],1,2,1,5-1[8:1],6,5,6,
1>4[8:1]*<6[8:1],5,1,,5,25,4,47,
{16}
3h[16:3],,,2h[16:3],,,1,,3^1[8:1]/8^6[8:1],,,,,,,,
6h[16:3],,,7h[16:3],,,8,,1^3[8:1]/6^8[8:1],,,,1pp4[4:3]*qq6[4:3],,,,
,,,,,,,,,,,,,,,,
18,,27,,36,,4,5,4,,27,,1,8,1,8,

{8}
1-4[8:1],5,1-6[8:1],5,1^4[8:1],5,1^6[8:1],5,
1-5[8:1],5,1>4[8:1]*<6[8:1],7,1,,15,,
8-5[8:1],4,8-3[8:1],4,8^5[8:1],4,8^3[8:1],4,
8-4[8:1],4,8^5[8:1]*^3[8:1],2,8,,48,,
1-4[8:1],5,1-6[8:1],5,1^4[8:1],5,1^6[8:1],5,
1,5,4w8[8:1],35,4,,2-5[8:1],7,2,,7-4[8:1],3,
2-5[8:1]/7,,6<3[2:1]/2,,45,,,,
{16}
18,,36,,4,5,4,,
{8}
12,38,47,18,27,36,78,16,
25,18,27,36,4-1[8:1]b/5-8[8:1]b,,4b/5b,,
18,27,36,12,38,47,18,27,
36,78,16,25,4-1[8:1]/3b,,5-8[8:1]/4b,,

{16}
6h[16:3]/5b,,,1,,,3h[16:3]/4,,,8,,,56,,45,,
3h[16:3]/4,,,1,,,6h[16:3]/5,,,8,,,24,,36,,
7h[16:3]/5,,,1,,,2h[16:3]/4,,,8,,,57,,45,,
2h[16:3]/4,,,1,,,7h[16:3]/5,,,8,,,24,,57,,

18,,18,,,,,,,,,,3qq3[4:1]/4pp4[4:1],,,,
34,,,,,,,,7,8,7,,16,,,,
27,,27,,,,,,,,,,5qq5[4:1]/6pp6[4:1],,,,
56,,,,,,,,12,,,,78,,45,,
36,,36,,,,,,,,,,4qq4[4:1]/5pp5[4:1],,,,
45,,,,,,,,7,8,,2,1,,38,,
45,,4h[4:3]/5h[4:3],,,,,,,,,,,,,,
4,5,4,5,4,5,4,5,4,5,4,5,4,5,4,5,

{8}
2^5[8:1],1,7^4[8:1],8,2-6[8:1],1,7-3[8:1],8,
2q6[8:1],1,7p3[8:1],8,1w5[8:1],,,,
7^4[8:1],1,2^5[8:1],1,7-3[8:1],8,2-6[8:1],1,
7p3[8:1],8,2q6[8:1],1,8w4[8:1],,,,
3-8[8:1],5,6-1[8:1],4,3-7[8:1],5,6-2[8:1],4,
3^8[8:1],5,6^1[8:1],4,3,,4-8[8:1],5,
4,,5-1[8:1],4,3-7[8:1]/5,,8<1[8:3]/3,,
18,,,,
{16}
38,,16,,4,5,4,,
{8}
78,16,25,18,27,36,12,38,
47,18,27,36,4b^1[8:1]/5b^8[8:1],,4b/5b,,
18,27,36,78,16,25,18,27,
36,12,38,47,5b-1[8:1]/6b,,4b>5[4:3]/5b,,
3b/4b,,,,,,,,

{16}
2,,13,,8,,17,,6,,57,,4,5,4,,
7,,68,,1,,28,,3,,45,,6,,5/7h[4:1],,
,,8,,2,1,2,,3,,24,,6,,57,,
3,,45,,3,,4/2h[4:1],,,,1,,7,8,7,,
2,,13,,7,,68,,3h[16:3],,,4,,,18,,
6h[16:3],,,5,,,18,,2h[16:3],,,3,,,18,,
7h[16:3],,,6,,,18,,1^4[8:1]/8^5[8:1],,,,,,,,

2,4,2,4,2,4,3,5,3,5,3,5,4,6,4,6,
4,6,5,7,5,7,5,7,6-2[8:1],,,,,,,,
2,8,2,8,2,8,1,6,1,6,1,6,3,7,3,7,
3,7,1,5,1,5,1,5,2v4[8:1]/6v8[8:1],,,,,,,,
3,5,3,5,3,5,4,7,4,7,4,7,2,6,2,6,
2,6,4,8,4,8,4,8,3qq1[8:1]/7qq5[8:1],,,,,,,,
2,6,2,6,2,6,1,5,1,5,1,5,8,4,8,4,
8,4,7,3,7,3,7,3,6<3[4:1],,,,,,,,
4q5[1:2]*>5[1:2],,,,,,,,,,,,,,,,
,,,,,,,,,,,,,,,,
,,,,,,,,,,,,,,,,
,,,,,,,,,,,,
1b-4[8:1]/8b-5[8:1],,1b/8b,,,,,,,,,,,,,,

E
名前:
コメント:

タグ:

+ タグ編集
  • タグ:

このサイトはreCAPTCHAによって保護されており、Googleの プライバシーポリシー利用規約 が適用されます。

最終更新:2022年07月21日 17:39