夢花火

BPM EASY BASIC ADVANCED EXPERT MASTER Re:MASTER
186 3 5 7+ 10 13 -

EXPERT MASTER Re:MASTER
譜面制作者 はっぴー 某S氏 -

EASY


BASIC


ADVANCED


EXPERT


MASTER

(186)
{8}
47,,,34,25,,,37,3^8[8:1]/7^4[8:1],,3p5[8:1],,,,12,,
38,,,78,16,,,37,3^8[8:1]/7^4[8:1],,7p1[8:1],,,8b,8b,,
16,,,12,38,,,26,2^5[8:1]/6^1[8:1],,6q4[8:1],,,,56,,
47,,,34,25,,,37,3^8[8:1]/7^4[8:1],,7p1[8:1],,,,4b/5b,,
{8}
12,,{16}78,,,2,{8}12,8,7,6,1,2,3,4,56,,47,,
34,,{16}56,,,3,{8}34,2,3,4,45,45,36,36,27,1b,8b,1b,
78,,{16}12,,,7,{8}78,1,2,3,8,7,6,5,34,,25,,
56,,{16}34,,,6,{8}56,7,6,5,4,5,3,6,{16}4,5,4,5,4,5,4,5,

{4}
4-1[8:1],8w4[8:1],8,,5-8[8:1],1w5[8:1],1,,
3v6[8:1],3,2^7[8:1],2,6v3[8:1],6^1[8:1],6,,
1-7[8:1]/2-4[8:1],1-5[8:1]/2-6[8:1],12,,7-5[8:1]/8-2[8:1],7-3[8:1]/8-4[8:1],78,,
1-6[8:1]/2-5[8:1],12,7-4[8:1]/8-3[8:1],78,2-5[8:1]/6-1[8:1],26,{16}3b/7b,,4,5,4,5,4,5,
2h[16:3],,,3h[16:3],,,{8}4,7,6,5,4,3,4,3,4,3-7[8:1],,5b,,
{16}8h[16:3],,,7h[16:3],,,{8}6,1,2,3,4,56,56,47,47,3^8[8:1]/8^5[8:1],,3b/8b,,
{16}7h[16:3],,,6h[16:3],,,{8}5,2,3,4,5,6,5,6,5,6-2[8:1],,4b,,
4,8,3,7,2,6,1^4[8:1],5,{4}1b^6[8:1],1bw5[8:1],1b,28,
{8}
8-4[8:1],8,2,2,1-5[8:1],1,7,7,8p4[8:1],8,2,2,1q5[8:1],1,7,7,
8^5[8:1],8,2,2,1^4[8:1],1,7,7,18,7,18,2,18,7b,7b,7b,
3-8[8:1],3,5,5,6-1[8:1],6,4,4,3^8[8:1],3,5,5,6^1[8:1],6,4,4,
34,5,34,2,34,6,34,1,56,4,56,7,56,3,56,8,
45,45,36,36,{16}1,8,1,8,1,8,1,8,{4}27,,,,,,8b,8b,

{16}1^4[16:3],,,4^7[16:3],,,{8}7>3[16:3],,4,4,,
{16}8^5[16:3],,,5^2[16:3],,,{8}2<6[16:3],,5,5,,
2^5[8:1],,2,7^2[8:1],,7,,4h[4:1],,3,2,1>5[8:1]*<5[8:1],,,,,
8^5[8:1],,2,3^8[8:1],,5,6,7^4[8:1],,8,1,2^7[8:1],,4,5,6,
3h[4:1]/8h[4:1],,,1h[4:1]/6h[4:1],,,5,4,{4}4b-2[8:1]/5b-1[8:1],4b-8[8:1]/5b-7[8:1],4b/5b,12,
{16}8^5[16:3],,,5^2[16:3],,,{8}2<6[16:3],,5,5,,
{16}1^4[16:3],,,4^7[16:3],,,{8}7>3[16:3],,4,4,,
7^4[8:1],,7,2^7[8:1],,2,,5h[4:1],,6,7,8>4[8:1]*<4[8:1],,,,,
1^4[8:1],,7,6^1[8:1],,4,3,2^5[8:1],,1,8,7^2[8:1],,5,4,3,
1h[4:1]/6h[4:1],,,3h[4:1]/8h[4:1],,,4,5,{1}4>5[2:1]/5p4[2:1],
{8}
38,,,7,16,,,2,38,4,25,6,47,,8,,
16,,,2,38,,,7,16,5,47,3,25,1b,1b,,
47,,,34,25,,,56,47,3,18,7,26,,34,,
25,,,56,47,,,34,25,6,18,2,3b/7b,,45,,

{8}2,{16}6,5,{8}6,18,34,18,56,18,
{16}3,4,3,4,3,,7b/8b,,6,5,6,5,6,,1b/2b,,
{8}7,{16}3,4,{8}3,18,56,18,34,18,
{16}7,8,7,8,7,,1b/8b,,2,1,2,1,2,,1b/8b,,
{8}2,{16}6,5,{8}6,18,34,18,56,18,
{16}1,2,3,4,5,,8b,,8,7,6,5,4,,1b,,
15,26,37,48,15,,1b,,15,48,37,26,15,,1b,,
15,26,37,48,15,,1b,,15,48,37,26,15,,1b,,
{4}27,,,,,,8b,8b,
{2}1q6[8:1]/2^5[8:1],7q4[8:1]/8^3[8:1],5q2[8:1]/6^1[8:1],3b/4b,

{16}4^1[16:3],,,1^6[16:3],,,{8}6>2[16:3],,1,1,,
{16}5^8[16:3],,,8^3[16:3],,,{8}3<7[16:3],,8,8,,
3^8[8:1],,3,6^3[8:1],,6,,1h[4:1],,2,3,4>8[8:1]*<8[8:1],,,,,
5^8[8:1],,3,2^5[8:1],,8,7,6^1[8:1],,5,4,3^6[8:1],,1,8,7,
1h[4:1]/6h[4:1],,,3h[4:1]/8h[4:1],,,4,5,{4}4b-8[8:1]/5b-7[8:1],4b-2[8:1]/5b-1[8:1],4b/5b,78,
1b>5[4:1],5b<1[4:1],1b>5[4:1],5b<1[4:1],1b>5[4:1],5b<1[4:1],1b,5b,
4b^1[8:1]/8b^5[8:1],4b/8b,4b^7[8:1]/8b^3[8:1],4b/8b,
{32}8,7,6,5,4,3,2,1,8,7,6,5,4,3,2,1,8,7,6,5,4,3,2,1,{4}4b/8b,
{8}4^1[8:1],,5,7^4[8:1],,1,2,3^8[8:1],,4,5,6^3[8:1],,8,1,2,
3h[4:1]/8h[4:1],,,1h[4:1]/6h[4:1],,,5,4,
{16}8,7,6,5,4,3,2,1,{32}8,7,6,5,4,3,2,1,8,7,6,5,4,3,2,1,

{8}38,,,78,16,,,37,3^8[8:1]/7^4[8:1],,7p1[8:1],,,,56,,
47,,,34,25,,,26,2^5[8:1]/6^1[8:1],,2q8[8:1],,,1b,1b,,
38,,,12,38,,,78,16,25,3-7[8:1]/4-8[8:1],25,34,,56,,
47,,,34,25,,,12,38,47,5-1[8:1]/6-2[8:1],47,5b/6b,,,,
{1},,E

Re:MASTER


  • どこかのeach が重複してるというエラーがありました 50行目らしいですがどうなんでしょうか -- 名無しさん (2017-08-19 01:10:38)
  • 補足:394ノート目らしいです -- 名無しさん (2017-08-19 01:30:05)
名前:
コメント:

タグ:

+ タグ編集
  • タグ:

このサイトはreCAPTCHAによって保護されており、Googleの プライバシーポリシー利用規約 が適用されます。

最終更新:2020年06月14日 19:09