Endless, Sleepless Night

BPM EASY BASIC ADVANCED EXPERT MASTER
165 2 4 7 10+ 13

EASY


BASIC

(165.0){1},,,,
{2}2,3,
{1}4,
{2}5,4,
{1}3,
{2}3,2,
{2}1,1,
{2}8,7,
{2}8,8,
{2}1,2,
{2}1,1,
{2}8,7,
{1}6h[2:1],
{2}5,5,
{2}4,4,
{2}3,3,
{4}2,2,2,,
{2}1,1,
{2}8,8,
{2}7,7,
{4}6,6,6,,
{1}7-2[4:3],,
{1}3-6[4:3],,
{1}7/8,
{1}1/2,
{2}1,8,
{1}1b/8b,
{4}1,1,1,,
{1}2h[2:1],
{4}1,1,1,,
{1}8h[2:1],
{2}8,8,
{2}7,7,
{4}8,8,8,,
{1}7h[2:1],
{4}8,8,8,,
{1}1h[2:1],
{2}1,1,
{2}2,2,
{2}3,3-8[4:3],{1},,
{1}7,
{1}6,
{1}5,
{1}4,
{2}3,3,
{2}2,2,
{2}1,1,
{2}1/8,1b/8b,
{4}8,8,8,,
{2}7,7,
{4}8,8,8,,
{2}1,1,
{4}2,2,2,,
{4}3,3,3,,
{4}4,4,4,,
{2}3,3,
{4}4,4,4,,
{2}5,5,
{4}6,6,6,,
{4}7,7,7,,
{4}8,8,1,1,
{1}2h[2:1]/7h[2:1],
{2}2,1/2,
{2}1,1/8,
{2}8,7/8,
{4}7,7,7,,
{2}6,5/6,
{2}5,4/5,
{2}4,3/4,
{4}3,3,3b,,
{2}2,2,
{2}1,1,
{1}8h[2:1],
{4}1,1,1,1b,
E

ADVANCED

(165.0){1}1h[4:3],
{4}2,3,4,5,
{1}6h[4:3],
{4}7,8,1,2,
{1}1h[4:3],
{4}8,6,4,2,
{1}8h[4:3],
{4}1,3,5,7b,
{4}3,2,1h[4:1],,
{4}6,7,8h[4:1],,
{4}1,8,2,7,
{4}3,6,4,5,
{4}1,2,3,4,
{4}8,7,6,5,
{2}4-1[16:3],5-8[16:3],
{2}1-3[8:1],8-6[8:1],
{4}2,2,2,2,
{4}6,5,6,5,
{4}7,7,7,7,
{4}3,4,3,4,
{4}2,2,1,1,
{4}8,8,7,7,
{2}6h[2:1],5h[2:1],
{2}4h[2:1],3b,
{4}2,2,1,8,
{4}7,7,8,1,
{4}3,3,4,4,
{4}5,5,6,6,
{4}7,7,6,5,
{4}2,2,3,4,
{4}4/5,,3/6,2/7,
{4}1/8,,1b,8b,
{4}1/2,3,4,5,
{4}5/6,7,8,1,
{4}1/2,8,7,6,
{4}5/6,5,4,3,
{2}2-6[16:3],7-3[16:3],
{2}1-5[16:3],8-4[16:3],
{4}2,3,4,4/5,
{4}5,6,7,7/8,
{4}2,1,3,8,
{4}4,7,5,6,
{4}4,3/5,5,4/6,
{4}3,2/4,6,5/7,
{4}4/8,3/7,2/6,1/5,
{4}1h[2:1]/8h[2:1],,,1b,
{1}8-4[8:3],
{1}2h[4:3]/7h[4:3],
{4}3h[4:1],4h[4:1],5h[4:1],6,
{1}3h[4:3]/6h[4:3],
{4}2h[4:1],1h[4:1],8h[4:1],7,
{4}1,1,3,3,
{4}5,5,7,7,
{4}1,8,2,7,
{4}1/8,2/7,3/6,1b/8b,
{4}2,1,8,7,
{4}3,4,5,6,
{4}3,4,3,1,
{4}6,5,6,8,
{2}1-5[16:3],8-4[16:3],
{2}2-5[16:3],7-4[16:3],
{4}3,3/4,6,5/6,
{4}2,3/4,7,5/6,
{4}2h[4:1],3,7h[4:1],6,
{4}2h[4:1],1h[4:1],8h[4:1],7,
{4}7/8,1-6[16:3]/2-5[16:3],,,
{4}1/2,7-4[16:3]/8-3[16:3],,,
{4}5,4,6,3,
{4}7,2,8,1b,
{4}1,2,3,4,
{4}5,6,7,8,
{4}8,7,6,5,
{4}4,3,2,1,
{2}8-4[16:3],2-6[16:3],
{2}7-3[16:3],1-5[16:3],
{4}8,1,7,2,
{4}6,3,4/5,1b/8b,
{1}1h[4:3],
{4}8,6,4,2,
{1}8h[4:3],
{4}1,3,5,7b,
E

EXPERT

(165.0){1}2z6[2:1],
{4}7h[4:1],5h[4:1],4h[4:1],2h[4:1],
{1}7s3[2:1],
{4}2h[4:1],4h[4:1],5h[4:1],7h[4:1],
{4}2h[4:1],4,7h[4:1],5,
{4}2h[4:1],3,7h[4:1],6,
{4}2h[4:1],1,7h[4:1],8,
{4}2h[4:1],7h[4:1],5-1[8:1],8b,
{8}2,4,3,7,5,6,,1h[4:1],
{8},5h[4:1],,4,7,2,,,
{8}6,5,7,3,4,2,,8h[4:1],
{8},4h[4:1],,5,3,6,2/7,,
{8}3,4,1,6,5,8,,2h[4:1],
{8},6h[4:1],,5,7,1,,,
{8}5,6,1,4,3,8,,7h[4:1],
{8},3h[4:1],,4,2,8,1b,,
{8}3h[4:1],4,7,,6h[4:1],5,2,,
{8}8,7,1,2,6,3,4/5,,
{8}2h[4:1],1,6,,7h[4:1],8,3,,
{8}6,5,3,4,7,2,1/8,,
{8}2h[4:1],3,8,,7h[4:1],6,1,,
{8}6,8,1,3,5-1[8:1],,,,
{8}3,1,8,6,4-8[8:1],,,,
{4}7-4[8:1],2-5[8:1],8b,,
{8}6q3[4:1],,,,,,1,2,
{8}3p6[4:1],,,,,,8,7,
{2}6-2[8:1],3-7[8:1],
{8}8-4[8:1],,1-5[8:1],,,,8,7,
{8}6<3[8:3],,,,,,1,2,
{8}3>6[8:3],,,,,,8,7,
{2}6-1[8:1],3-8[8:1],
{4}2b/7b,,2-4[8:1],8-6[8:1],
{8}1-5[8:1],,,,7,6,5,4h[4:3],
{8},2,,8,,6,3/6,,
{8}7,8,1/6,,2,3,4,5h[4:3],
{8},7,,1,,3,4,5,
{8}6,4,6,,3,5,3,2,
{8},1,7,3,5,4,8b,,
{8}1-4[8:1]/7-4[8:1],,,,3,2,1,8^5[8:1],
{8},4^1[8:1],,,,8,1/8,,
{8}7,6,4/5,,2,3,4,5h[4:3],
{8},7,,1,,3,4,5,
{8}2,1,3/8,,7,6,5,4h[4:1],
{8},8,7,6,1,2,3,4,
{8}7,5,7,,2,4,2,8,
{4}1/7b,3/4b,2b/8,5b/6,
{1}1b/8b,
{1}2q3[2:1],
{4}6h[4:1],8h[4:1],1h[4:1],3h[4:1],
{1}7p6[2:1],
{4}3h[4:1],1h[4:1],8h[4:1],6h[4:1],
{2}1-6[8:1],7-4[8:1],
{2}2-5[8:1],8-3[8:1],
{2}1^6[8:1],8^3[8:1],
{4}4h[4:1],5h[4:1],6-1[8:1],8b,
{8}7-3[8:1],,,,2,3,4,5h[4:3],
{8},6,,1,,4,3/6,,
{8}2,1,3/8,,7,6,5,4h[4:3],
{8},3,,8,,5,4,3,
{8}2,4,2,,7,5,7,1,
{8},8,2,6,4,5,1b,,
{8}2-5[8:1]/8-5[8:1],,,,6,7,8,1^4[8:1],
{8},5^8[8:1],,,,1,1/8,,
{8}7,6,4/5,,2,3,4,5h[4:3],
{8},6,,1,,4,5,6,
{8}7,1,6,,2,8,3,4h[4:1],
{8},8,2,7,1/8,2/7,3/6,4/5,
{8}6,4,8,,3,5,1,8,
{4}4/6,2/5,3/7,1b/8b,
{8}3,4,2/5,6,5,4/7,,3h[4:1],
{8},7h[4:1],,1,8,2/7,,,
{8}6,5,4/7,3,4,2/5,,6h[4:1],
{8},2h[4:1],,8,1/7,2/6,3/5,,
{8}4,5,2/6,5,4,3/7,,5h[4:1],
{8},4h[4:1],,7,2,1/8,,,
{8}6,5,2/8,3,4,1/7,,5/6,
{8},3/4,,4/5,2,7,1b/8b,,
{1}6<3[2:1],
{4}4/5,6/7,1/8,2/3,
{1}4>5[8:5],
{4}7h[4:1],3h[4:1],5h[4:1],1,
E

MASTER

(165)
{8}2,1,83,2,7,8,16,7,{4}1h[4:1],3h[4:1],5h[4:1],7,
{8}3,4,52,3,6,5,47,6,{4}8h[4:1],6h[4:1],4h[4:1],2,
{8}12,2,56,6,34,3,78,7,{4}12,78,56,34,
{8}34,1,65,8,34,1,65,8,{4}12,34,56,7b/8b,

{16}1,8,{8}1,7,5,3,{4}1,2-6[8:1],8-4[8:1],{8}1,2,{4}3,{8}45,
{16}8,1,{8}8,2,4,6,{4}8,7-3[8:1],1-5[8:1],{8}8,8,7,{4}6,
{16}3,4,{8}3,6,5,7,{4}4,38,21,{8}78,23,{4}56,{8}34,
{16}6,5,{8}6,3,4,2,{4}5,61,78,{8}12,56,78,{4}3b/4b,


{8}26,37,48,,51,48,37,,15,37,15,37,48,26,48,,
12,83,12,,87,16,87,,13,13,48,48,57,57,26,,
{4}1-5[8:1]/2-5[8:1],,8-4[8:1]/7-4[8:1],,{8}2,5,7,4,1,8,{4}1h[4:1],
{16}8,7,{8},{16}7,6,{8},{16}6,5,{8},{16}5,4,{8},
{4}1-5[8:1]/8-4[8:1],1>4[8:1]/8<5[8:1],,,

{8}2,1,8,4,5,{4}6,37,48,15,{8}2<7[8:1]/6>3[8:1],26,
{4},12,56,78,34,45,27,{8}18,27,36,
7,8,1,5,4,{4}3,62,51,84,{8}7>2[8:1]/3<6[8:1],73,
{4},1-6[8:1],5-2[8:1],7-4[8:1],{8}8,{4}8b,,


{8}1b,7b,2b,8b,
1h[8:1],2,{4}3h[4:1],{8}8h[8:1],7h[8:1],6h[8:1],{4}5v3[8:1],4v6[8:1],,{8}1,{4}8,
{8}4h[8:1],3,{4}2h[4:1],{8}5h[8:1],6h[8:1],7h[8:1],{4}8v5[8:1],1v4[8:1],,{8}2h[8:3],1,8,
{4}7v6[8:1],8p1[8:1],{8}6,7,8,{4}1v3[8:1],{8},{4}8v2[8:1],{8}2,1,{4}8b,

{8}3>1[8:1],4,{4}5,{8}7<4[8:1],{4}8>3[8:1],,2<7[8:1],3<6[8:1],{8}1,{4}1,
{8}6<8[8:1],5,{4}4,{8}2>5[8:1],{4}1<6[8:1],,7>2[8:1],6>3[8:1],{8}8,8,1,
{4}1-5[8:1],16,{8}6v8[8:1],{4}5v3[8:1],,{8}6,{4}2,{8}26,37,{4}48,
{8}62,15,{4}48,{8}1v4[8:1]/5v8[8:1],8<5[4:2]/4>1[4:2],{4},,,,1p8[4:3]/7b,
7h[4:3],,,,


7<8[4:2]/8>7[4:2],,,,8q6[4:1],6q4[4:1],4-8[8:1],,
2>1[4:2]/1<2[4:2],,,,1p3[4:1],3p5[4:1],5-1[8:1],,
{8}34,1,65,8,34,1,65,8,{4}4v2[4:1],2-7[4:1],7v5[8:1],,
{8}45,2,45,8,45,1,45,7,{4}1q5[8:1]/5q1[8:1],1<6[8:1]/5>2[8:1],,1b/8b,


{16}3,4,,6,5,,2,1,,7,8,,{8}34,56,
{16}2,1,,7,8,,3,4,,6,5,,{8}27,18,
{16}2,7,,5,4,,1,8,,6,3,,{8}15,37,
{16}2,6,,8,4,,1,5,,7,3,,1,8,{8}1,
{16}8,4,,2,6,,3,7,,5,1,,{8}48,26,
{16}1,5,,3,7,,8,4,,2-6[8:1],8,,{4}2b,

{16}3,5,{8}1,27,{16}6,4,7,1,{8}6,2,8,
{16}2,8,{8}4,26,{16}7,5,8,4,{8}1,3,2,
{16}4,8,{8}2,36,{16}8,1,7,2,{8}6,3,4,
{16}1,7,{8}3,5,{16}2,6,4,8,{8}2,{16}5,4,{8}5,
{16}1,8,{8}1,23,{16}6,5,6,5,{8}6,{4}34,
{16}8,1,{8}8,76,{16}3,4,3,4,{8}3,{4}65,
{8}34,12,{4}78,{8}8v5[8:1]/4v1[8:1],1>4[4:2]/5<8[4:2],{4},,,45,8b/4b,


{16}2,7,{8}2,8v3[8:1],{4}3p5[8:1],,1>5[8:1],,{8}7<3[8:1],{4}7,{8},1,
{16}7,2,{8}7,1v6[8:1],{4}6q4[8:1],,6<3[8:1],,{8}1<6[8:1],{4}8>3[8:1],,
{16}7,8,{8}7,2v4[8:1],{4}1v3[8:1],,4v5[8:1],2<7[8:1],{8}5-1[8:1],{4}5,{8},8,
{16}2,1,{8}2,7v5[8:1],{4}8v6[8:1],,5v4[8:1],7>2[8:1],{8}5,4,5,{4}1b/8b,


1>4[4:1],4<7[4:1],7s3[4:1],,8h[4:1],6h[4:1],4h[4:1],2,
8<5[4:1],5>2[4:1],2z6[4:1],,1h[4:1],3h[4:1],5h[4:1],7b,

,,,,
,,,,

E


名前:
コメント:

タグ:

+ タグ編集
  • タグ:

このサイトはreCAPTCHAによって保護されており、Googleの プライバシーポリシー利用規約 が適用されます。

最終更新:2022年08月11日 15:11