[宴]ミラクル・ショッピング

BPM 属性 COMMENT
167 ボリューム満点!ドン(物理)・キホーテ
固定オプション
ミラーモード 無いし
画面中央表示 無いし
トラックスキップ 無いし
ジャッジスタイル 無いし

属性:宴

(167){2}
4/5,4/5,4/5,4/5,
{256}0/4,5/6,,,,,,{32},,,{8},,,{256}0/4,5/6,,,,,,{32},,,{8},,,
{256}0/4,5/6,,,,,,{32},,,{8},,,{256}0/4,5/6,,,,,,{32},,,{8},,,
{256}0/3,4/5,,,,,,{32},,,{8},,,{256}0/3,4/5,,,,,,{32},,,{8},,,
{256}0/3,4/5,,,,,,{32},,,{8},,,{256}0/3,4/5,,,,,,{32},,,{8},,,
{256}3/4,5/6,,,,,,{32},,,{8},,,{256}3/4,5/6,,,{64},,,{16},,,
{256}4/5,6/7,,,,,,{32},,,{8},,{256}2/3,4/5,,,,,,{32},,,{8},,
{256}1/2,7/8,,,{64},,,{16},,,
{256}4/5,6/7,,,{64},,,{16},,,{256}4/5,6/7,,,{64},,,{16},,,
{256}4/5,6/7,,,{64},,,{16},,,{256}4/5,6/7,,,{64},,,{16},,,
{256}2/3,4/5,,,{64},,,{16},,,{256}2/3,4/5,,,{64},,,{16},,,
{256}2/3,4/5,,,{64},,,{16},,,{256}2/3,4/5,,,{64},,,{16},,,
{256}4/5,6/7,,,{64},,,{16},,,{256}4/5,6/7,,,{64},,,{16},,,
{256}4/5,6/7,,,{64},,,{16},,,{256}4/5,6/7,,,{64},,,{16},,,
{256}2/3,4/5,,,{64},,,{16},,,{256}2/3,4/5,,,{64},,,{16},,,
{256}2/3,4/5,,,{64},,,{16},,,{256}2/3,4/5,,,{64},,,{16},,,
{256}1/2,3/8,,,{64},,,{16},,,{256}1/2,3/8,,,{64},,,{16},,,
{256}1/2,3/8,,,{64},,,{16},,,{256}1/2,3/8,,,{64},,,{16},,,
{256}1/6,7/8,,,{64},,,{16},,,{256}1/6,7/8,,,{64},,,{16},,,
{256}1/6,7/8,,,{64},,,{16},,,{256}1/6,7/8,,,{64},,,{16},,,
{256}1/2,3/8,,,{64},,,{16},,,{256}1/2,3/8,,,{64},,,{16},,,
{256}1/2,3/8,,,{64},,,{16},,,{256}1/2,3/8,,,{64},,,{16},,,
{256}1/6,7/8,,,{64},,,{16},,,{256}1/6,7/8,,,{64},,,{16},,,
{256}1/6,7/8,,,{64},,,{16},,,{256}1/6,7/8,,,{64},,,{16},,,
{256}0/3,4/5,,,{64},,,{16},,,{256}0/4,5/6,,,{64},,,{16},,,
{256}0/5,6/7,,,{64},,,{16},,,{256}0/6,7/8,,,{64},,,{16},,,
{256}0/4,5/6,,,{64},,,{16},,,{256}0/3,4/5,,,{64},,,{16},,,
{256}0/2,3/4,,,{64},,,{16},,,{256}0/1,2/3,,,{64},,,{16},,,
{256}0/3,4/5,,,{64},,,{16},,,{256}0/4,5/6,,,{64},,,{16},,,
{256}0/5,6/7,,,{64},,,{16},,,{256}0/6,7/8,,,{64},,,{16},,,
{256}0/4,5/6,,,{64},,,{16},,,{256}0/3,4/5,,,{64},,,{16},,,
{256}0/2,3/4,,,{64},,,{16},,,{256}0/1,2/3,,,{64},,,{16},,,
{256}0/3,4/5,,,{64},,,{16},,,{256}0/4,5/6,,,{64},,,{16},,,
{256}0/5,6/7,,,{64},,,{16},,,{256}0/6,7/8,,,{64},,,{16},,,
{256}0/4,5/6,,,{64},,,{16},,,{256}0/3,4/5,,,{64},,,{16},,,
{256}0/2,3/4,,,{64},,,{16},,,{256}0/1,2/3,,,{64},,,{16},,,
{256}0/3,4/5,,,{64},,,{16},,,{256}0/4,5/6,,,{64},,,{16},,,
{256}0/5,6/7,,,{64},,,{16},,,{256}0/6,7/8,,,{64},,,{16},,,
{256}0/4,5/6,,,{64},,,{16},,,{256}0/3,4/5,,,{64},,,{16},,,
{256}0/2,3/4,,,{64},,,{16},,,{256}0/1,2/3,,,{64},,,{16},,,
{256}3/4,5/6,,,{64},,,{16},,,{256}4/5,6/7,,,{64},,,{16},,,
{256}5/6,7/8,,,{64},,,{16},,,{256}1/6,7/8,,,{64},,,{16},,,
{256}3/4,5/6,,,{64},,,{16},,,{256}2/3,4/5,,,{64},,,{16},,,
{256}1/2,3/4,,,{64},,,{16},,,{256}1/2,3/8,,,{64},,,{16},,,
{256}3/4,5/6,,,{64},,,{16},,,{256}4/5,6/7,,,{64},,,{16},,,
{256}5/6,7/8,,,{64},,,{16},,,{256}1/6,7/8,,,{64},,,{16},,,
{256}3/4,5/6,,,{64},,,{16},,,{256}2/3,4/5,,,{64},,,{16},,,
{256}1/2,3/4,,,{64},,,{16},,,{256}1/2,3/8,,,{64},,,{16},,,
{256}3/4,5/6,,,{64},,,{16},,,{256}4/5,6/7,,,{64},,,{16},,,
{256}5/6,7/8,,,{64},,,{16},,,{256}1/6,7/8,,,{64},,,{16},,,
{256}3/4,5/6,,,{64},,,{16},,,{256}2/3,4/5,,,{64},,,{16},,,
{256}1/2,3/4,,,{64},,,{16},,,{256}1/2,3/8,,,{64},,,{16},,,
{256}3/4,5/6,,,{64},,,{16},,,{256}3/4,5/6,,,{64},,,{16},,,
{256}2/3,6/7,,,{64},,,{16},,,{256}2/3,6/7,,,{64},,,{16},,,
{256}1/2,7/8,,,{64},,,{16},,,{4},,,
{256}3h[16:3]/4h[16:3],5h[16:3]/6h[16:3],,,{64},,,{16},,,
{256}3h[16:3]/4h[16:3],5h[16:3]/6h[16:3],,,{64},,,{16},,,
{256}3h[16:3]/4h[16:3],5h[16:3]/6h[16:3],,,{64},,,{16},,,
{256}3/4,5/6,,,{64},,,{16},,,
{256}1/2,7/8,,,{64},,,{16},,
{256}1/2,7/8,,,{64},,,{16},,,
{256}2h[16:5]/3h[16:5],6h[16:5]/7h[16:5],,,{64},,,{16},,,{8},,,
{256}3/4,5/6,,,{64},,,{16},,,
{256}2h[4:1]/3h[4:1],6h[4:1]/7h[4:1],,,{64},,,{16},,,,,
{192}1/2,7/8,,,{48},,,{192}1/2,7/8,{96},,,{24},,,
{256}3h[16:9]/4h[16:9],7h[16:9]/8h[16:9],,,{64},,,{16},,,,,,,,,,,,
{256}3/4,5/6,,,{64},,,{16},,,
{256}1/2,7/8,,,{64},,,{16},,,{256}1/2,3/8,,,{64},,,{16},,,
{256}1/2,7/8,,,{64},,,{16},,,{256}1/6,7/8,,,{64},,,{16},,,
{256}1/2,7/8,,,{64},,,{16},,,{256}1/2,3/8,,,{64},,,{16},,,
{256}1/2,7/8,,,{64},,,{16},,,{256}1/6,7/8,,,{64},,,{16},,,
{256}1/2,7/8,,,{64},,,{16},,,{256}1/2,3/8,,,{64},,,{16},,,
{256}1/2,7/8,,,{64},,,{16},,,{256}1/6,7/8,,,{64},,,{16},,,
{4}1h[4:3]/8h[4:3],2h[2:1]/7h[2:1],3h[4:1]/6h[4:1],,
{256}1h[16:3]/2h[16:3],7h[16:3]/8h[16:3],,,{64},,,{16},,,
{256}1h[16:3]/2h[16:3],7h[16:3]/8h[16:3],,,{64},,,{16},,,
{256}1h[16:3]/2h[16:3],7h[16:3]/8h[16:3],,,{64},,,{16},,,
{256}1/2,7/8,,,{64},,,{16},,,
{256}1/2,7/8,,,{64},,,{16},,
{256}1/2,7/8,,,{64},,,{16},,,
{256}2h[16:5]/3h[16:5],6h[16:5]/7h[16:5],,,{64},,,{16},,,{8},,,
{256}3/4,5/6,,,{64},,,{16},,,
{256}2h[4:1]/3h[4:1],6h[4:1]/7h[4:1],,,{64},,,{16},,,,,
{192}1/2,7/8,,,{48},,,{192}1/2,7/8,{96},,,{24},,,
{256}1h[16:9]/2h[16:9],5h[16:9]/6h[16:9],,,{64},,,{16},,,,,,,,,,,,
{256}3/4,5/6,,,{64},,,{16},,,
{256}1/2,7/8,,,{64},,,{16},,,{256}1/6,7/8,,,{64},,,{16},,,
{256}1/2,7/8,,,{64},,,{16},,,{256}1/2,3/8,,,{64},,,{16},,,
{256}1/2,7/8,,,{64},,,{16},,,{256}1/6,7/8,,,{64},,,{16},,,
{256}1/2,7/8,,,{64},,,{16},,,{256}1/2,3/8,,,{64},,,{16},,,
{256}1/2,7/8,,,{64},,,{16},,,{256}1/6,7/8,,,{64},,,{16},,,
{256}1/2,7/8,,,{64},,,{16},,,{256}1/2,3/8,,,{64},,,{16},,,
{256}1/2,7/8,,,{64},,,{16},,,{256}1/2,7/8,,,{64},,,{16},,,
{256}3/4,5/6,,,{64},,,{16},,,
{256}1>8[4:3]/2,7/8,,,{64},,,{16},,,{4},,,,
{4}4/3,{256}2/3,4/5,,,{64},,,{16},,,{4}5/6,{256}4/5,6/7,,,{64},,,{16},,,
{4}4/3,{256}2/3,4/5,,,{64},,,{16},,,{4}5/6,{256}4/5,6/7,,,{64},,,{16},,,
{4}4/3,{256}2/3,4/5,,,{64},,,{16},,,{4}5/6,{256}4/5,6/7,,,{64},,,{16},,,
{4}7/8,{256}1/6,7/8,,,{64},,,{16},,,{4}1/2,{256}1/2,3/8,,,{64},,,{16},,,
{4}7/8,{256}1/6,7/8,,,{64},,,{16},,,{4}1/2,{256}1/2,3/8,,,{64},,,{16},,,
{4}7/8,{256}1/6,7/8,,,{64},,,{16},,,{4}1/2,{256}1/2,3/8,,,{64},,,{16},,,
{4}7/8,{256}1/6,7/8,,,{64},,,{16},,,{4}1/2,{256}1/2,3/8,{128},,,{32},,,,,{8},,,
{256}0/4h[4:1],5h[4:1]/6h[4:1],,,,,,{32},,,{8},,,{256}0/3h[4:1],4h[4:1]/5h[4:1],,,,,,{32},,,{8},,,
{256}0/4h[4:1],5h[4:1]/6h[4:1],,,,,,{32},,,{8},,,{256}0/3h[4:1],4h[4:1]/5h[4:1],,,,,,{32},,,{8},,,
{256}0/5h[4:1],6h[4:1]/7h[4:1],,,,,,{32},,,{8},,,{256}0/2h[4:1],3h[4:1]/4h[4:1],,,,,,{32},,,{8},,,
{256}0/5h[4:1],6h[4:1]/7h[4:1],,,,,,{32},,,{8},,,{256}0/2h[4:1],3h[4:1]/4h[4:1],,,,,,{32},,,{8},,,
{256}4h[4:1]/5h[4:1],6h[4:1]/7h[4:1],,,,,,{32},,,{8},,,
{256}2h[4:1]/3h[4:1],4h[4:1]/5h[4:1],,,,,,{32},,,{8},,,
{256}4h[4:1]/5h[4:1],6h[4:1]/7h[4:1],,,,,,{32},,,{8},,,
{256}2h[4:1]/3h[4:1],4h[4:1]/5h[4:1],,,,,,{32},,,{8},,,
{256}3/4,5/6,,,{64},,,{16},,,{256}2/3,6/7,,,{64},,,{16},,,
{256}1/2,7/8,,,{64},,,{16},,,{256}2/3,4/5,,,{64},,,{16},,,,,
{256}4/5,6/7,,,{64},,,{16},,,,,
{256}1b/2b,7b/8b,,,{64},,,{16},,,
{192}3b/4b,5b/6b,,,{48},,,{192}3/4,5/6,,,{48},,,{192}3/4,5/6,,,{48},,,
{192}3b/4b,5b/6b,,,{48},,,{192}3/4,5/6,,,{48},,,{192}3/4,5/6,,,{48},,,
{192}3b/4b,5b/6b,,,{48},,,{192}3/4,5/6,,,{48},,,{192}3/4,5/6,,,{48},,,
{256}3/4,5/6,,,{64},,,{16},,,
{256}1/2,7/8,,,{64},,,{16},,
{256}1/2,7/8,,,{64},,,{16},,,
{256}2h[16:5]/3h[16:5],6h[16:5]/7h[16:5],,,{64},,,{16},,,,,,,,,
{256}3/4,5/6,,,{64},,,{16},,,
{256}2h[4:1]/3h[4:1],6h[4:1]/7h[4:1],,,{64},,,{16},,,,,
{192}1/2,7/8,,,{48},,,{192}1/2,7/8,{96},,,{24},,,
{256}1h[16:9]/2h[16:9],5h[16:9]/6h[16:9],,,{64},,,{16},,,,,,,,,,,,
{256}3/4,5/6,,,{64},,,{16},,,
{256}1/2,7/8,,,{64},,,{16},,,{256}1/6,7/8,,,{64},,,{16},,,
{256}1/2,7/8,,,{64},,,{16},,,{256}1/2,3/8,,,{64},,,{16},,,
{256}1/2,7/8,,,{64},,,{16},,,{256}1/6,7/8,,,{64},,,{16},,,
{256}1/2,7/8,,,{64},,,{16},,,{256}1/2,3/8,,,{64},,,{16},,,
{256}1/2,7/8,,,{64},,,{16},,,{256}1/6,7/8,,,{64},,,{16},,,
{256}1/2,7/8,,,{64},,,{16},,,{256}1/2,3/8,,,{64},,,{16},,,
{4}1h[4:3]/8h[4:3],2h[2:1]/7h[2:1],3h[4:1]/6h[4:1],,
{192}1b/2b,7b/8b,,,{48},,,{192}1/2,7/8,,,{48},,,{192}1/2,7/8,,,{48},,,
{192}1b/2b,7b/8b,,,{48},,,{192}1/2,7/8,,,{48},,,{192}1/2,7/8,,,{48},,,
{192}1b/2b,7b/8b,,,{48},,,{192}1/2,7/8,,,{48},,,{192}1/2,7/8,,,{48},,,
{256}1/2,7/8,,,{64},,,{16},,,
{256}1/2,7/8,,,{64},,,{16},,
{256}1/2,7/8,,,{64},,,{16},,,
{256}2h[16:5]/3h[16:5],6h[16:5]/7h[16:5],,,{64},,,{16},,,{8},,,
{256}3/4,5/6,,,{64},,,{16},,,
{256}2h[4:1]/3h[4:1],6h[4:1]/7h[4:1],,,{64},,,{16},,,,,
{192}1/2,7/8,,,{48},,,{192}1/2,7/8,{96},,,{24},,,
{256}1h[16:9]/2h[16:9],5h[16:9]/6h[16:9],,,{64},,,{16},,,,,,,,,,,,
{256}3/4,5/6,,,{64},,,{16},,,
{256}1/2,7/8,,,{64},,,{16},,,{256}1/2,3/8,,,{64},,,{16},,,
{256}1/2,7/8,,,{64},,,{16},,,{256}1/6,7/8,,,{64},,,{16},,,
{256}1/2,7/8,,,{64},,,{16},,,{256}1/2,3/8,,,{64},,,{16},,,
{256}1/2,7/8,,,{64},,,{16},,,{256}1/6,7/8,,,{64},,,{16},,,
{256}1/2,7/8,,,{64},,,{16},,,{256}1/2,3/8,,,{64},,,{16},,,
{256}1/2,7/8,,,{64},,,{16},,,{256}1/6,7/8,,,{64},,,{16},,,
{256}1/2,7/8,,,{64},,,{16},,,{256}1/2,7/8,,,{64},,,{16},,,
{256}3/4,5/6,,,{64},,,{16},,,
{256}1/2,7/8<1[4:3],,,{64},,,{16},,,{4},,,,
{4}3,3/4,{256}0/3,4/5,,,{64},,,{16},,,{256}3/4,5/6,,,{64},,,{16},,,
{4}6,5/6,{256}0/4,5/6,,,{64},,,{16},,,{256}3/4,5/6,,,{64},,,{16},,,
{4}3,3/4,{256}0/3,4/5,,,{64},,,{16},,,{256}3/4,5/6,,,{64},,,{16},,,
{4}7,7/8,{256}0/1,7/8,,,{64},,,{16},,,{256}1/2,7/8,,,{64},,,{16},,,
{4}2,1/2,{256}0/1,2/8,,,{64},,,{16},,,{256}1/2,7/8,,,{64},,,{16},,,
{4}7,7/8,{256}0/1,7/8,,,{64},,,{16},,,{256}1/2,7/8,,,{64},,,{16},,,
{4}2,1/2,{256}0/1,2/8,,,{64},,,{16},,,{256}1/2,7/8,,,{64},,,{16},,,
{192}0/4,5/6,{96},,,{24},,,{192}0/4,5/6,,,{48},,,{256}0/4,5/6,,,{64},,,{16},,,
{192}0/3,4/5,{96},,,{24},,,{192}0/3,4/5,,,{48},,,{256}0/3,4/5,,,{64},,,{16},,,
{192}0/1,7/8,{96},,,{24},,,{192}0/1,7/8,,,{48},,,{256}0/1,7/8,,,{64},,,{16},,,
{192}0/1,2/8,{96},,,{24},,,{192}0/1,2/8,,,{48},,,{256}0/1,2/8,,,{64},,,{16},,,
{192}3/4,5/6,{96},,,{24},,,{192}3/4,5/6,,,{48},,,
{192}3/4,5/6,{96},,,{24},,,{192}3/4,5/6,,,{48},,,
{192}2/3,6/7,{96},,,{24},,,{192}2/3,6/7,,,{48},,,
{192}1/2,7/8,{96},,,{24},,,{192}1/2,7/8,,,{48},,,
{192}1/2,7/8,{96},,,{24},,{8},,
{512}2/3,4/5,6/7,,{128},,,{32},,,{8},,
{512}1b/2b,3b/4b,5b/6b,7b/8b,{128},,,{32},,,{8},,,
{2}
,,
,,
,,
E

  • 暫定版。12分に気づかないまま無理やり合わせたところがあるので要修正です、ごめんなさい。 -- 名無しさん (2018-04-17 09:52:13)
名前:
コメント:

タグ:

+ タグ編集
  • タグ:

このサイトはreCAPTCHAによって保護されており、Googleの プライバシーポリシー利用規約 が適用されます。

最終更新:2018年04月17日 09:52