Yet Another "drizzly rain"

アーティスト

BPM EASY BASIC ADVANCED EXPERT MASTER Re:MASTER
175 2 4 6 10 12 -

EXPERT MASTER Re:MASTER
譜面制作者 ぴちネコ 某S氏 -

EASY


BASIC

(175.0){1}1,
{1}1,
{1}2,
{1}2,
{1}3,
{1}3,
{2}4,4,
{1}4/5,
{2}5,5,
{1}5,
{2}6,6,
{1}6,
{2}7,7,
{1}7,
{1}8h[1:1],,
{2}1,1,
{1}1,
{1}2h[1:1],,
{2}3,3,
{2}4,4,
{2}5,5,
{2}6,6,
{2}7,7,
{2}8,8,
{2}1,1,
{2}1/8,1/8,
{4}8,8,8,,
{4}7,7,7,,
{4}6,6,6,,
{4}5,5,5,,
{4}4,4,4,,
{4}3,3,3,,
{4}2,2,2,,
{4}1,1,1,,
{1}1-5[4:3],,
{1}8-4[4:3],,
{1}2-5[4:3],,
{1}7-4[4:3],,
{1}1b/8b,,
{1}1/8,,
{1}1/8,
{1}1/8,
{2}1/8,1/8,
{1}1h[2:1]/8h[2:1],
{4}1,1,1,,
{4}2,2,2,,
{4}3,3,3,,
{4}4/5,4/5,4/5,,
{4}5,5,5,,
{4}6,6,6,,
{4}7,7,7,,
{4}1/8,1/8,1b/8b,,
{4}2,2,2,,
{4}3,3,3,,
{4}4,4,4,,
{4}5,4,5,,
{4}6,6,6,,
{4}7,7,7,,
{4}8,8,8,,
{4}1,8,1,,
{1}1-5[4:3],,
{1}8-4[4:3],,
{1}2-5[4:3],,
{1}7-4[4:3],,
{1}1b/8b,
E

ADVANCED

(175.0){1}5,
{1}5,
{1}4,
{1}4,
{4}5,5,5,,
{4}4,4,4,,
{2}4/5,3/6,
{4}2/7,2/7,2/7,,
{4}8,8,7,7,
{4}1,1,2,2,
{4}8,8,1,1,
{4}2/7,2/7,2/7,,
{2}6h[2:1],5,
{2}3h[2:1],4,
{2}6h[2:1],5,
{2}3h[2:1],4,
{2}2h[2:1],1,
{2}7h[2:1],8,
{2}2h[2:1],1,
{2}7h[2:1],8,
{4}2,3,4,4/5,
{4}7,6,5,4/5,
{4}2,3,4,4/5,
{4}7,6,5,4/5,
{4}1,2,3,4/5,
{4}8,7,6,4/5,
{2}3/6,2/7,
{4}1/8,1/8,1b/8b,,
{4}6,6,5/6,5/6,
{4}3,3,3/4,3/4,
{4}6,6,5/7,5/7,
{4}3,3,2/4,2/4,
{4}7,7,6/8,6/8,
{4}2,2,1/3,1/3,
{4}8,8,1,1,
{1}1^4[8:3]/8^5[8:3],
{4}3,2,3,4,
{4}6,7,6,5,
{4}3,2,3,4,
{4}6,7,6,5,
{4}2,2,1,3,
{4}7,7,8,6,
{4}2,2,1,3,
{4}7,7,8,6,
{1}1b,,
{1}1h[2:3]/6h[2:3],,
{1}3h[2:3]/8h[2:3],,
{2}4/5,4/5,
{1}4-1[8:3]/5-8[8:3],
{4}2,2,1/2,1/2,
{4}7,7,5/6,5/6,
{4}7,7,7/8,7/8,
{4}2,2,3/4,3/4,
{4}2,2,1/2,1/2,
{4}7,7,5/6,5/6,
{4}7,7,7/8,7/8,
{1}1-6[8:3]/2-5[8:3],
{4}8,7,6,5/7,
{4}1,2,3,2/4,
{4}8,7,6,5/7,
{4}1,2,3,2/4,
{4}5,6,7,6/8,
{4}4,3,2,1/3,
{4}6,5/6,3,3/4,
{1}4-1[8:3]/5-8[8:3],
{4}2,2,1,1/2,
{4}7,7,8,7/8,
{4}2,2,1,1/2,
{4}7,7,8,7/8,
{4}6,5,4,3/4,
{4}3,4,5,5/6,
{4}7,7,8,8,
{4}2,2,1,1,
{1}8b,
{2}5h[2:1],6h[2:1],
{1}7,
{2}4h[2:1],3h[2:1],
{1}2,
E

EXPERT

(175.0){4}6h[1:1],5,,5,
{4}3h[1:1],4,,4,
{4}7h[1:1],8,,8,
{4}2h[1:1],1,,1,
{8}7-4[4:1],,,,1,1,1,,
{8}2-5[4:1],,,,8,8,8,,
{8}5/7,,,,2/4,,,2/7,
{8},3/6,,4-1[8:1]/5-8[8:1],4/5,,,,
{8}7,,1/7,,7,8,7,,
{8}2,,2/8,,2,1,2,,
{8}5,,3/5,,4,6,4,,
{4}5/6,7/8,1/2,3/4,
{8}5h[8:3],,,4,4h[8:3],,,3,
{8}3h[8:3],,,2,2h[8:3],,,1,
{1}1<3[2:1],
{8},1,,1,2,3,4,,
{8}3h[8:3],,,4,4h[8:3],,,5,
{8}5h[8:3],,,6,,7,,8,
{1}8>6[2:1],
{8}8,,1,1/8,,2/7,,3b/6b,
{4},2/7,1,2/7,
{4}5,3/6,4,3/6,
{4}2,3/8,1,3/8,
{4}7,1/6,8,1/6,
{4}2h[4:1],1,7h[4:1],8,
{4}2h[4:1],3,7h[4:1],6,
{4}1b/2b,5,7b/8b,4,
{4}1b/2b,7b/8b,6b/5-1[8:1],,
{8}7h[4:1],,8,,1/2,1^6[4:1]/2^5[4:1],,,
{4},4/7,8h[4:1],7,
{8}2h[4:1],,1,,7/8,7^4[4:1]/8^3[4:1],,,
{4},2/5,1h[4:1],2,
{8}7h[4:1],,8,,1/2,1^6[4:1]/2^5[4:1],,,
{4},4/7,8h[4:1],7,
{4}3h[4:1],4,6h[4:1],5,
{4}3p6[4:1]/7^2[4:1],,,1b,
{8}8,,2/8,,8,2,4,,
{8}1,,1/7,,1,7,5,,
{8}4,,4/6,,4,6,8,,
{8}5,,3/5,,5,3,1,,
{4}2,7/8,2/1-5[8:1],,
{4}8,1/2,7/8-4[8:1],,
{8}8,1,7,2,6,3,5,4,
{2}5p8[4:1],4q1[4:1],
{1}5<4[2:3],,
{1}2b/7b,
{8},,,6/8,,1/3,,1/8,
{4}1b/8b,7,6,5,
{4}4,3,2,1,
{2}8^5[4:1],1^4[4:1],
{4}8-6[8:1],2-4[8:1],1-5[8:1],,
{4}4,1/7,5,2/8,
{8}5/6,,3/4,,8,1,2/7,,
{4}6,2/8,3,1/7,
{8}3/4,,5/6,,1,8,2/7,,
{4}4,7/8,5,1/2,
{8}5/7,,2/4,,7,2,1/8,,
{4}6,1/2,3,7/8,
{1}4^1[4:1]/5^8[4:1],
{8}4,,2,,7/8,1/6,,4,
{8},1/2,3/8,,1-7[8:1]/2-4[8:1],,,,
{8}6,,4,,1/2,3/8,,6,
{8},3/4,2/5,,3-1[8:1]/4-6[8:1],,,,
{8}8,,6,,3/4,2/5,,8,
{8},5/6,4/7,,5-3[8:1]/6-8[8:1],,,,
{4}1/2,4/7,5h[4:1]/6h[4:1],,
{4}3p6[4:1]/7^2[4:1],,,1b/8b,
{8}8,,3/8,,1,2,3,,
{8}1,,1/6,,8,7,6,,
{8}4,,4/7,,5,6,7,,
{8}5,,2/5,,4,3,2,,
{4}5/7,3/4,6/5-1[8:1],,
{4}2/4,5/6,3/4-8[8:1],,
{8}4,5,3,6,2,7,1,8,
{2}1-6[8:1]/2-5[8:1],7-4[8:1]/8-3[8:1],
{1}2b/7b,
{4}7,8,1,2^7[4:3],{1},
{4}6,5,4,3>6[1:1],{1},,
E

MASTER

(175){2},

{4}1>5[4:2]/8h[4:3],,,,1h[4:3]/8<4[4:2],,,,
1h[4:3]/2>6[4:2],,,,7<3[4:2]/8h[4:3],,,,
1>7[4:2]/5h[4:3],,,,4h[4:3]/8<2[4:2],,,,
1h[4:1]/8,2,1/8h[4:1],{8}7,{4}16,38,{8}45,{4}4-1[8:1]/5-8[8:1],,

2h[4:1],4h[4:1],{8}5h[8:1],8,{4}8,
7h[4:1],5h[4:1],{8}4h[8:1],1,{4}1,
2h[4:1],4h[4:1],{8}5h[8:1],8,{4}8,
1b,1b,1b,1b,


1<6[8:1],{8},3>8[8:1],{4}3,{8},5>2[8:1],{4}5,{8},7<4[8:1],{4}7,{8},1>8[4:2],{4}1h[4:3],,,,{8}2,{4}8,{8}26,4,5,{4}36,
7>2[8:1],{8},5<8[8:1],{4}5,{8},3<6[8:1],{4}3,{8},{4}2h[4:1],1h[4:1],{8}8<1[4:2],{4}8h[4:3],,,,18,{8}4,{4}5,18,{8}2b/7b,

2-5[8:1],1,{4}2,{8}7-4[8:1],8,7,{4}1h[4:1],3h[4:1],5h[4:1],7h[4:1],{8}8,
7-3[8:1],8,{4}7,{8}2-6[8:1],1,2,{4}8h[4:1],6h[4:1],4h[4:1],2h[4:1],{8}1,
2v5[8:1],1,{4}2,{8}7v4[8:1],8,7,{4}1h[4:1],3h[4:1],{8}4,5,3,6,4,{4}35,{8}47,{16}6,5,{4}6,{8}52,{16}3,4,{4}3,{8}27,{16}1,8,{4}1-5[8:1],1b/8b,


{8}2,1,3,8,4-8[8:1],4,7,{4}7h[4:1],{8}8,6,1,7-4[8:1],{16},3,{8},{4}3h[4:1],{8}4,4<7[8:1],3,2,{16},2,{8},{4}1>4[8:1]/8,{8}8,7,6,5-2[8:1]/6-1[8:1],{16},56,{4},
{8}7,8,6,1,7<4[8:1],{16},8,{8},{4}8>3[8:1],{8}6,7,8,1-5[8:1]/2,{16},3,{8},{4}3-8[8:1],{8}7,6,5,34,{16},25,{8},78,34,12,56,18,4-1[8:1]/5-8[8:1],36,{4}45,


{8}2,1,{4}38,{8}7,8,{4}61,{8}6,5,{4}74,{8}3,4,{4}25,
{8}2,1,{4}38,{8}7,8,{4}61,{8}4,5,7,5,4,2,{4}45,
{8}17,8,{4}17,{8}82,1,{4}82,{8}53,4,{4}53,{8}46,5,{4}46,
{8}68,7,{4}68,{8}31,2,{4}31,1<6[8:1]/2>5[8:1],,8>3[8:1]/7<4[8:1],,

1p8[4:4]/8<1[4:4],,,,,,,,
4q5[4:4]/5<4[4:4],,,,,{8},{4}12,78,{8}12,
{4}1q4[4:2]/2q5[4:2],,,,8p5[4:2]/7p4[4:2],,,,
1/2-5[8:1],1,8/7-4[8:1],{8}8,{4}1,8,{8}1,{4}1-4[8:1]/8-5[8:1],18,


{16}2,1,2,1,{4}2b,{16}7,8,7,8,{4}7b,{16}6,5,6,5,7,4,7,4,8,3,8,3,{4}1b,
{16}7,8,7,8,{4}7b,{16}2,1,2,1,{4}2b,{16}3,4,3,4,2,5,2,5,1,6,1,6,{4}8b,
{16}3,8,3,8,{4}3b,{16}6,1,6,1,{4}6b,{16}4,7,4,7,3,6,3,6,2,5,2,5,{4}1b,
{16}1,8,1,8,1,8,1,8,1,2,3,4,5,6,7,8,{4}1-5[8:1],{8}8-4[8:1],8,{4}2,1b/8b,


{8}7,8,6,1,5-1[8:1],5,2,{4}2h[4:1],{8}1,3,8,2-5[8:1],{16},6,{8},{4}6h[4:1],{8}5,5>2[8:1],6,7,{16},7,{8},{4}1/8<5[8:1],{8}1,2,3,3-8[8:1]/4-7[8:1],{16},34,{4},
{8}2,1,2,8,2>5[8:1],{16},1,{8},{4}1<6[8:1],{8}3,2,1,7/8-4[8:1],{16},6,{8},{4}6-1[8:1],{8}2,3,4,56,{16},47,{8},12,56,78,34,18,4-1[8:1]/5-8[8:1],3b/6b,{4}4b/5b,


{8}1,2,35,6,7,8,12,3,
4,5,68,1,2,3,45,6,
8,7,64,3,2,1,87,6,
5,4,31,8,7,6,54,3,
1,1,28,1,3,3,24,3,
5,5,46,5,7,7,68,7,
28,7,16,2,37,6,25,3,
{4}4>1[8:1]/8<5[8:1],,4<7[8:1]/8>3[8:1],,

4>8[4:8]/8<8[4:16],,,,
,,,,
,,,,
,,,,

,,,,
,,,,
,,,,
,,,,
,,

E

Re:MASTER


名前:
コメント:

タグ:

+ タグ編集
  • タグ:

このサイトはreCAPTCHAによって保護されており、Googleの プライバシーポリシー利用規約 が適用されます。

最終更新:2022年07月17日 13:44