シアワセうさぎ

アーティスト

BPM EASY BASIC ADVANCED EXPERT MASTER Re:MASTER
140 2 4 6 8+ 11 -

EXPERT MASTER Re:MASTER
譜面制作者 はっぴー 某S氏 -

EASY


BASIC

(140.0){1},
{2}3,3,
{4}3,4,3,,
{2}6,6,
{4}6,5,6,,
{2}4,4,
{4}4,5,4,,
{2}5/6,4/5,
{4}3/4,4/5,5/6,,
{1}3h[1:1]/6h[1:1],,
{1}6,
{1}6,
{2}7,7,
{2}8,8,
{1}1h[4:3],
{4}8,8,1b/8b,,
{1}1h[2:1],
{1}2h[2:1],
{1}3h[2:1],
{4}4,5,4,,
{1}6h[2:1],
{1}7h[2:1],
{4}8,8,1,1,
{1}2/7,
{1}8h[2:1],
{1}7h[2:1],
{1}6h[2:1],
{4}5,4,5,,
{1}3h[2:1],
{1}2h[2:1],
{4}1,1,8,8,
{1}2h[2:1]/7h[2:1],
{2}2,2,
{4}1,1,1,,
{2}7,7,
{4}8,8,8,,
{1}1h[4:7],
{1}8h[4:3],
{2}1,8,
{4}1,1,1,8b,
{2}1,2,
{4}1,1,2,,
{2}3,4,
{4}3,3,4,,
{2}5,6,
{4}5,5,6,,
{4}7,7,8,8,
{2}1/8,1/8,
{2}8,7,
{4}8,8,7,,
{2}6,5,
{4}6,6,5,,
{2}4,3,
{4}4,4,3,,
{4}2,2,1,1,
{2}1/8,1/8,
{1}1-5[4:3],,
{1}8-4[4:3],,
{2}1/2,1/8,
{1}7/8,
{4}2,2,7,7,
{1}1b/8b,
E

ADVANCED

(140.0){1},
{4}3,3,3,3,
{4}7,7,7,7,
{4}1,1,1,1,
{4}5,5,5,5,
{4}2,2,6,6,
{4}4,4,8,8,
{2}1/2,1/2,
{2}7/8,7/8,
{1}1^4[4:3]/8^5[4:3],,
{2}4/8,3/7,
{4}2/6,,1/5,1/8,
{4}4,3,5,6,
{4}2,1,7,8,
{4}7/8,1/6,2/5,3/4,
{4}1/2,3/8,4/7,5b/6b,
{1}4h[1:1],
{1}6h[1:1],
{1}8h[1:1],
{1}2h[2:1],
{1}8-4[8:3],
{1}1-3[8:3],
{1}8-6[8:3],
{1}1-5[8:3],
{4}6,5,6,5/6,
{4}3,4,3,3/4,
{4}7,8,7,7/8,
{4}7/8,1/8,1/2,,
{1}8h[1:1],
{1}6h[1:1],
{4}4h[4:3],,,2,
{4}2/4,3/5,4b/6b,,
{4}5/6,5/6,3/4,3/4,
{4}5/6,3/4,5/6,,
{4}3/4,5/6,7/8,1/2,
{4}1/8,2/7,3b/6b,,
{1}1p4[2:1],
{1}8q5[2:1],
{1}2v4[2:1],
{1}7v5[2:1],
{4}3,3/4,6,5/6,
{4}2,3/4,7,5/6,
{4}3,2/4,6,5/7,
{4}2,1/3,6/8,6/8,
{4}1h[4:3],,2,2,
{4}8h[4:3],,7,7,
{4}1,8,2,7,
{4}3,,4/5,4b/5b,
{4}1/5,2/6,3/7,4/8,
{4}1/2,1/8,7/8,1/8,
{4}4/8,3/7,2/6,1/5,
{4}1h[4:1]/8h[4:1],,1b/8b,1b/8b,
{4}1,2,3,4,
{4}5,6,7,8,
{4}1h[4:3],,3,3,
{4}8h[4:3],,6,6,
{1}1-5[8:3],
{1}8-4[8:3],
{1}2^7[2:1],
{1}6q3[2:1],
{4}2,1,8,7,
{4}7,8,1,2,
{4}3,4,5,6,
{4}5,4,3,2,
{1}1b,
E

EXPERT

(140.0){1},
{4}7h[4:1],8,2h[4:1],1,
{4}7h[4:1],8,3/5,4/6,
{4}2h[4:1],1,7h[4:1],8,
{4}2h[4:1],1,4/5,4/5,
{4}7h[4:1],8,2h[4:1],1,
{4}7h[4:1],8,3/6,3/6,
{2}2^5[4:1],7^4[4:1],
{2}2q6[4:1],7p3[4:1],
{1}1b,
{4}8,7,6,5,
{4}1,2,3,4,
{4}8,7,6,4/5,
{4}2,3/4,7,5/6,
{4}2,3/4,7,5/6,
{4}2/4,3,5/7,6,
{1}3q6[2:1],
{4}6h[2:1],,5,5,
{4}3h[2:1],,4,4,
{4}6h[2:1],,5,5,
{1}6q4[8:3],
{4}2,3p6[4:1],,,
{4}7,6q3[4:1],,,
{4}1,2^7[4:1],,,
{1}7v4[8:3],
{4}3h[2:1],,4,7,
{4}6h[2:1],,5,2,
{4}3h[2:1],,4,7,
{4}3/6,1^3[4:1]/8^6[4:1],,,
{4}1/6,7,6,5,
{4}3/8,2,3,4,
{4}7,2,8,1h[8:5],
{2}8h[8:3],2/7,
{4}1,7/8,6,4/5,
{4}3,1/2,8,1/7,
{4}8,1/2,3,4/5,
{4}6,7/8,1/6,,
{4}8h[4:3],7,6,7,
{4}1h[4:3],2,3,2,
{2}2h[8:3]/7h[8:3],2/7,
{4}6^3[4:1],,,1b/8b,
{4}5h[4:1],6,4h[4:1],3,
{4}5h[4:1],4,3/4,5/6,
{4}4h[4:1],3,5h[4:1],6,
{4}4h[4:1],5,5/6,3/4,
{4}6h[4:1],5,3h[4:1],4,
{4}7h[4:1],8,2,2,
{4}4/7h[4:1],6,5/2h[4:1],3,
{2}3h[4:1]/6h[4:1],2b,
{4}7/3h[4:1],1,2/6h[4:1],8,
{4}7/3h[4:1],1,4/6,3/5,
{4}2/6h[4:1],8,7/3h[4:1],1,
{4}2/6h[4:1],8,3/5,4/6,
{4}1/8,7/8,1/8,1/2,
{4}1/8,1/8,4/5,2/7,
{2}7^4[4:1],2^5[4:1],
{2}7p3[4:1],2q6[4:1],
{1}8b,
{4}3,3/4,6,5/6,
{4}2,3/4,7,5/6,
{4}4/5,3/4,4/5,3/6,
{2}8-5[4:1],1-4[4:1],
{4}5,5/6,4,3/4,
{2}6^3[4:1],2^7[4:1],
{4}6q3[4:1],,,{1}4-1[4:3],,
E

MASTER

(140){4},,

{16}3,,,3,,,2,,


{4}1/2-5[4:2],1,8,8,7,7,{8}6,6,5,5,
{4}3/4-7[4:2],3,2,2,1,1,{8}8,8,7,7,
{4}2/6<1[4:2],3,4,5,6,7,{8}48,7,26,
3,45,2,8,{16}7,7h[16:3],,,{8}1,5,
4h[4:1],,3,4,6,{16}37,,,15,,,48,,

{4}2/6<4[4:2],,,,7/3>5[4:2],,,{8},7,
{4}2h[4:2]/7q5[4:1],,,{8},2,{4}7h[4:2]/2p4[4:1],,{8},{16}7,,,8,,,
{4}1/2>5[4:2],8,7,6,5/6<1[4:2],4,3,2-5[8:1],7-4[8:1],1-6[8:1],8-3[8:1],1,
{8}45,36,{16}4,5,,2>5[8:1]/7h[16:5],{4},,


{16}78,,,12,,,3/4h[8:3],,{4},5,{16}21,,,87,,,6/5h[8:3],,{4},4,
{16}78,,,45,,,2/1h[8:3],,{4},{8}8,8h[4:1],,6,4,2,{4}8,26,
{16}1/2h[16:3],,,3h[16:3],,,5h[8:3],,{8},6,6,,
{16}8/7h[16:3],,,6h[16:3],,,4h[8:3],,{8},3,3,,
{16}2/1h[16:3],,,8h[16:3],,,6h[8:3],,{8},5,5,,
{4}56,26,37,15,

{16}8h[16:3],,,2h[16:3],,,4-7[8:1],,{8},1,2,,
{16}2h[16:3],,,8h[16:3],,,6-1[8:1],,{8},8,7,,
{16}4h[16:3],,,6h[16:3],,,8-4[8:1],,{8},3,2,1h[4:1],,3,5,7,{4}1,37,
1>4[8:1]/8h[4:1],,{16}8,,,7,,,6,,{4}5<8[8:1]/4h[4:1],,{16}4,,,3,,,2,,
{4}16,38,{8}1,5,3,7,{4}7<4[8:1]/8>3[8:1],,1b/6b,,

2h[4:3]/8h[4:1],,4,8-5[8:1],8-3[8:1],8-4[8:1],8h[4:1],,
{8}1/2h[4:1],,3,5,8/7h[4:1],,6,4,{4}1<6[8:1]/2>5[8:1],,3b/8b,,
5>1[4:1],,{16}7,,,6,,,5,,{4}4<8[4:1],,{16}2,,,3,,,4,,
{8}5h[4:1],,6,5,4h[4:1],,3,4,{16}37,,,15,,,48,,{4}26,1b,


{16}7,,3,4,{8}3,4,5,7,8,2h[4:1],,1,1,,3,24,6,57,
{16}2,,6,5,{8}6,5,4,2,1,7h[4:1],,8,8,,7,68,2,13,
{16}4,,7,8,{8}7,8,1,3,4,6h[4:1],,5,5,,2-6[8:1],7-3[8:1],{4},
{8}2,8,1,{16}7<4[8:1],7,{8},,,26,,37,,2,6,{16}1,1,{8},7,

{16}2,,5,4,{8}6,4,3,1,2,8>3[8:1],,7,7,,5,46,4,35,
{16}7,,4,5,{8}3,5,6,8,7,1<6[8:1],,2,2,,1,82,8,71,
{16}6,,1,8,{8}2,8,7,5,6,4<7[8:1],,3,3,,15,2,37,6,
45,7,1,{16}2,2h[16:3],,,{8}8,4,5h[4:1],,6,5,3,{16}26,,,48,,,15,,


{4}3-8[4:1]/7-4[8:5],,,{8},8,{4}8>4[4:1],,{16},,8,,,7,,,
{4}6>3[8:1],,{16}12,,,56,,,{8}1<6[8:1]/2>5[8:1],,,,,,1,8,7,
6-2[8:1],,,7,8,1h[4:1],,4-8[8:1],{4},,{8}37,15,,3h[8:3],
{4},{8}4,4p5[4:1],,4>5[4:2],{4},,,,,
1b/8b,,,,
,,,,
,,,,

E

Re:MASTER


名前:
コメント:

タグ:

+ タグ編集
  • タグ:

このサイトはreCAPTCHAによって保護されており、Googleの プライバシーポリシー利用規約 が適用されます。

最終更新:2022年07月17日 13:45