|
EXPERT |
MASTER |
Re:MASTER |
譜面制作者 |
Jack |
小鳥遊さん |
- |
EASY
(170){4},{1}
3,3,4,4,5,5,6,6,5h[1:1],,4h[1:1],,
{4}
5,5,5,,6,6,6,,7,7,7,,8,8,8,,1,1,1,,2,2,2,,3,3,3,,4/5,,,,
4,4,4,,3,3,3,,2,2,2,,1,1,1,,8,8,8,,7,7,7,,6,6,6,,4/5,,,,
{1}
5h[2:1],6h[2:1],7h[2:1],8h[2:1],1h[2:1],2h[2:1],3h[2:1],4h[2:1],
3-6[4:3],,7-2[4:3],,2-6[4:3],,7-3[4:3],,
{2}4,4,3,3,2,2,1,,8,8,7,7,6,6,5,,
{4}5,5,,,6,6,,,7,7,,,8,8,,,1,1,,,2,2,,,3,3,,,4,4,,,
{1}5-8[4:3],,1-4[4:3],,3-6[4:3],,7-2[4:3],,1h[1:1],,
{4}
1,1,2,,3,3,4,,5,5,6,,7,7,8,,
8,8,7,,6,6,5,,4,4,3,,2,2,1,,
1,1,2,2,3,3,4/5,,5,5,6,6,7,7,1/8,,
{1}2-6[4:3],,7-3[4:3],,
{4}
4,4,3,3,2,2,1/8,,
8,8,7,7,6,6,4/5,,
5,5,6,6,7,7,8,8,1,1,2,2,3,3,4/5,,
4,4,3,3,2,2,1,1,8,8,7,7,
{1}6-3[4:3],,2b,,,,,E
BASIC
(170){4},{1}3,3,4,4,5,5,6,6,{2}7,7,7,,8,8,8,,{4}
1,1,1,,8,8,8,,7,7,7,,6,6,5/6,,4,4,4,,3,3,3,,2,2,2,,1,1,1/8,,
2,2,2,,3,3,3,,4,4,4,,5,5,4/5,,6,6,6,,7,7,7,,8,8,8,,1,1,1/8,,
{1}7h[2:1],6h[2:1],5h[2:1],4h[2:1],3h[2:1],2h[2:1],1h[2:1],8b,
8-3[4:3],,2-5[4:3],,4-7[4:3],,6-1[4:3],,
{2}1,2,3,4,5,6,7,8,8,7,6,5,4,3,2,1,
{4}8,8,7,7,6,6,5,,4,4,3,3,2,2,1,,1,1,2,2,3,3,4,,5,5,6,6,7,7,8,,
{2}
1h[2:1]/2h[2:1],,1/2,1/2,7h[2:1]/8h[2:1],,7/8,7/8,
5h[2:1]/6h[2:1],,5/6,5/6,3h[2:1]/4h[2:1],,3/4,3/4,
4-1[4:3]/5-8[4:3],,,,
{4}
1b,1,2,2,3/4,3/4,3/4,,5,5,6,6,7/8,7/8,7/8,,
8,8,7,7,5/6,5/6,5/6,,4,4,3,3,1/2,1/2,1/2,,
1b,1,2,2,3,3,4,4,5,5,6,6,7,7,1/8,,
8,8,7,7,6,6,5,5,4,4,3,3,2,2,8/1,,
{8}
1,,1,,2,2,2,,3,,3,,4/5,,,,
5,,5,,6,6,6,,7,,7,,7/8,,,,
8,,8,,7,7,7,,6,,6,,5/6,,,,
4,,4,,3,3,3,,2,,2,,1/2,,,,
{4}
3/4,3/4,5/6,5/6,
4/5,3/6,2/7,1/8,
1/8,2/7,3/6,4/5,
4/5,4/5,{8}4/5,4/5,4/5,,
{1}3h[4:3]/6h[4:3],3b/6b,,,,,E
ADVANCED
(170){4},{1}6h[1:1],5h[1:1],4h[1:1],{2}3,3,
3h[1:1],,4h[1:1],,5h[1:1],,6,5/7,
{8}3,3,,2/4,,1/5,,8/6,,7,,1/8,1/8,,2/7,,6,6,,5/7,,4/8,,1/3,,2,,1/8,1b/8b,,,,
6,,5/7,,8,8,8,,2,2,1,,2/8,,,,
3,,2/4,,1,1,1,,7,7,8,,1/7,,,,
7,,6/8,,5,5,5,,3,3,3/4,,4/5,,3/6,,
1b-4[8:3]/8b-5[8:3],,,,,,,,4/5,,3/6,3h[8:3]/6h[8:3],,,,,
4,,3/5,,4,4,4/5,,6h[4:1],,7h[4:1],,8,,1/6,,
5,,4/6,,5,5,4/5,,3h[4:1],,2h[4:1],,1,,1/8,,
{1}7^4[8:3]/8,2^5[8:3]/1,{8}6,6,5,,3,3,4<2[4:3],,{1},
{4}
3h[4:1],4,6h[4:1],5,2h[4:1],3,7h[4:1],6,2h[4:1],1,7h[4:1],8,1/2,3/8,4/7,,
6h[4:1],5h[4:1],6,7/8,2h[4:1],1h[4:1],2,3/4,
6,5b/6b,3,3b/4b,6,5b/7b,3,2b/4b,
{2}
6h[2:1],8h[2:1],7h[2:1],5,4b-7[2:1],,8-5[2:1],,
3h[2:1],1h[2:1],2h[2:1],4,5b-2[2:1],,1-5[2:1],,
7h[2:1],5h[2:1],3h[2:1],1h[2:1],7b^2[2:1],,4-1[2:1],,
2h[2:1],4h[2:1],5h[2:1],7h[2:1],6h[2:1],8h[2:1],2h[2:1],1,
{8}
7h[8:3],,8,8,,5/6,,3/4,,1/2,,8,8,,1/7,,
2h[8:3],,1,1,,3/4,,5/6,,7/8,,1,1,,2/8,,
3h[8:3],,4,4,,5/6,,2/4,,5/7,,8,8,,1/7,,
6h[8:3],,5,5,,3/4,,4/5,4/5,,3/6,,{2}2b/7b,
6h[2:1],8h[1:1],7h[2:1],,
3h[2:1],1h[1:1],2h[2:1],,
3h[2:1],4h[2:1],5h[2:1],6h[2:1],7h[2:1],8h[2:1],1h[2:1],8,
2V41[1:1]/7V58[1:1],,,,
{8}
3b,,1/2,,7,7,8,,6,6,5,,4/7,,,,
6,,7/8,,2,2,1,,3,3,4,,2/5,,,,
5,,4/6,,7,7,8,,2,2,1,,1/8,,2/7,,
{1}3b-8[4:1]/6b-1[4:1],{8}1/8,,2/7,2h[8:3]/7h[8:3],,,,,
3/4,,1/2,,8,7,6,,2/4,,1/3,,2/7,,,,
5/6,,7/8,,1,2,3,,5/7,,6/8,,2/7,,,,
{1}3^8[2:1]/4,6^1[2:1]/5,4qq1[4:5]/5pp8[4:5],,
{8}
6,5,4/7,,3,4,2/5,,7,8,1/6,,2/7,,,,
3,4,2/5,,6,5,4/7,,2,1,3/8,,2b/7b,,,,
6,6,5,5,4/5,,3/6,,2,2,1,1,1/8,,2/7,,
3/4,3/4,3/4,,5/6,5/6,5/6,,2/4,2/4,2/4,,1/7,1/7,1/7,,
{4}2h[4:1],3h[4:1],4h[4:1],5h[4:1],6h[4:1],7h[4:1],8h[4:1],1,,4/5,
{8}1/2,1/2,3/8,,7/8,7/8,1/6,,1/8,1/8,2/7,2/7,
{1}3h[4:3]/6h[4:3],4b/5b,,,,,E
EXPERT
(170){4},{1}3h[1:1],4h[1:1],5h[1:1],
{4}6h[4:3],,,5>6[4:3],,,,4<3[4:3],,,,5,5-1[8:1],,4-8[8:1],,2qq5[2:1]/7pp4[2:1],,,,
{8}1/8,7-3[8:1]/2,,8-4[8:1],,1-5[8:1],,2-6[8:1],,3-7[8:1],,1,1w5[8:1],,,,
3/7,3/7,4/8,4/8,3/7,3/7,2/6,2/6,
{16}1,7,1,7,1,7,1,7,{2}8b,
{16}2/7,,3,4,3,,6,5,6,,2,4,3,,7,5,6h[16:3],,,1,,,3/4,,{2}2^7[8:1]/5,
{16}2/7,,6,5,6,,3,4,3,,7,5,6,,2,4,3h[16:3],,,8,,,5/6,,{2}7^2[8:1]/4,
{16}2/7,,3,4,3,,6,5,6,,2,4,3,,7,5,6,,1,4,3,,8,5,6,,1,4,3,,8,5,
{4}6-2[8:1],1,3-7[8:1],8,1h[4:1]/2h[4:1],{8},7^4[8:1]/8^3[8:1],{2},
{16}1/6,,5,4,5,,3,4,3,,6,5,6,,2,3,2h[16:3],,,1,,,7/8,,{2}6^1[8:1]/1,
{16}3/8,,4,5,4,,6,5,6,,3,4,3,,7,6,7h[16:3],,,8,,,1/2,,{2}3^8[8:1]/8,
{8}
6h[8:3]/1,,5,5,,8,7,6,
3h[8:3]/5,,4,4,,1,2,3,
{16}4/5,,6,5,6,,3,4,3,,7,5,6,,2,4,3,,8,5,6,,1,8,1,8,1,8,1,8,1,8,
{8}
1h[8:1],,1h[8:1],,1h[8:1],,1/5,2/6,7h[8:1],,7h[8:1],,7h[8:1],,5/7,4/6,
3h[8:1],,3h[8:1],,3h[8:1],,3/7,4/6,5,5,5,5,4,3,2,1,
8h[8:1],,8h[8:1],,8h[8:1],,4/8,3/7,2h[8:1],,2h[8:1],,2h[8:1],,2/4,3/5,
4v1[8:1]/6v1[8:1],4/6,,,2v5[8:1]/8v5[8:1],2/8,,,
4^1[8:1]/6^1[8:1],4/6,,,1,1,2/8,,
{2}
1pp4[1:2],5,6,7,8h[1:1],6,1h[1:1],3,
5pp8[1:2],1,2,3,4h[1:1],2,5h[1:1],7,
{8}
1h[8:3],,,3h[8:3],,,5h[8:3],,,7h[2:1],,,6,6,5/8,,
8h[8:3],,,6h[8:3],,,4h[8:3],,,2h[2:1],,,3,3,1/4,,
1h[8:3],,,7h[8:3],,,3h[8:3],,,5h[2:1],,,4,4,2/7,,
4h[4:1]/5h[4:1],,,3h[4:1]/6h[4:1],,,
2h[4:1]/7h[4:1],,,1h[4:1]/8h[4:1],,,3/6,,,,
1b/8b,2-6[8:1]/7,,1-5[8:1],,8-4[8:1],,7-3[8:1],,6-2[8:1],,8,8w4[8:1],,,,
1/8,7-3[8:1]/2,,8-4[8:1],,1-5[8:1],,2-6[8:1],,3-7[8:1],,1,1w5[8:1],,,,
1h[4:1]/8h[4:1],,,1-5[8:1]/8,,8-6[8:1],,2-4[8:1],,1-5[8:1],,4,4w8[8:1],,,,
2/6,2-7[8:1]/6,,6-3[8:1],,2-6[8:1],,8z4[8:1],,,,,2b/7b,,,,
{2}
5h[2:1],{16}4,,,3,,,2,,2,,,1,,,8,,{2}8^5[4:1],
4h[2:1],{16}5,,,6,,,7,,7,,,8,,,1,,{2}1^4[4:1],
5h[2:1],{16}4,,,4,,,4,,6,,,6,,,6,,2,,,2,,,2,,
8h[2:1],,,,,,1,,1,,,2/7,{8},3/6,3pp8[4:3]/6,,,7,,,,,6qq1[4:3],,,2,{2},,,
{16}4b/5b,,2,1,2,,7,8,7,,2,1,2,,7,8,7,,3,4,,4,2,,{2}2^5[8:1]/8^5[8:1],
{16}1/5,,7,8,7,,2,1,2,,7,8,7,,2,1,2,,6,5,,5,7,,{2}1^4[8:1]/7^4[8:1],
{16}4/8,,2,1,2,,7,8,7,,2,1,2,,7,8,7,,3,4,,4,2,,1/8,,6,5,,5,7,,
1h[4:1]/8h[4:1],,,,,,1,8,2/7,,,1/2,{8},4/5,
7h[4:1]/8h[4:1],,,1b^6[8:1]/2b^5[8:1],,,,,
{16}3/8,,4,5,4,,6,5,6,,3,4,3,,7,6,7,,2,1,,1,3,,{2}3^8[8:1]/8^5[8:1],
{16}1/6,,5,4,5,,3,4,3,,6,5,6,,2,3,2,,7,8,,8,6,,{2}1^4[8:1]/6^1[8:1],
{8}
3h[8:3]/8,,4,4,,1,2,3,
6h[8:3]/4,,5,5,,8,7,6,
4/5,4/5,,1/3,,6/8,,4/5,
{16}3,6,3,6,2,7,2,7,1,8,1,8,
{8}1b,,
7b-4[8:1],1,1,3b-8[8:1],5,5,7b,,
2b-5[8:1],8,8,6b-1[8:1],4,4,2b,,
7b^4[8:1],1,2,3b^1[8:1],5,6,7b,,
2b^5[8:1],8,7,6b^1[8:1],4,3,2b,,
{16}
6b,,7h[16:3]/5,,,8h[16:3],,,1h[16:3],,,3h[16:3],,,4,,3b,5,3,5,2,6,2,6,1,7,1,7,8b,,,,
3b,,2h[16:3]/4,,,1h[16:3],,,8h[16:3],,,6h[16:3],,,5,,4b,6,4,6,3,7,3,7,2,8,2,8,1b,,,,
{12}
7,7,7,6/8,,,
2,2,2,1/3,,,
{2}
2-5[8:1]/7-4[8:1],
2V48[8:1]/7V51[8:1],
{12},,,2b/7b,,,
1/2,1/2,1/2,1/2,,,
7/8,7/8,7/8,7/8,,,
{16}4,5,3,6,2,7,1,8,
{1}1b>8[4:3],1b,,,,,E
MASTER
(170){16}6,4,5,3,6,,,,,,
3,4,3h[16:3],,,4h[16:3],,,5,,6h[16:3],,,5h[16:3],,,4,,3,,,,3,5,4,6,3,,,,,,
6,5,6h[16:3],,,5h[16:3],,,4,,3h[16:3],,,4h[16:3],,,5,,6,,,,6,4,5,3,6,,,,,,
3,4,3h[16:3],,,4h[16:3],,,5,,7h[16:3],,,6h[16:3],,,5,,2h[16:3],,,3h[16:3],,,4,,3h[4:1]/6h[4:1],,,,,,
5,4,5h[16:3],,,4h[16:3],,,3,,3,,4-8[4:1],,5,,6,,{2},
{8}1/8,2-5[8:1]/7,,6-1[8:1]/2,,3-7[8:1]/6,,8-4[8:1]/3,,1-5[8:1]/8,,1/5,
{24}8,7,6,1,2,3,7,6,5,2,3,4,{8}8,7-4[8:1]/1,,3-8[8:1]/7,,6-2[8:1]/3,,1/6,
{32}3,4,5,6,7,8,1,2,3,4,5,6,7,8,1,2,{2}3b/7b,
{16}
2/7,,6,5,7,,3,4,2,,7,8,6,,2,1,3,,6,5,8^5[8:1]*p4[8:1],1,8,,,,,,3,4,1,,
2/7,,3,4,2,,6,5,7,,2,1,3,,7,8,6,,3,4,1^4[8:1]*q5[8:1],8,1,,,,,,6,5,8,,
2/7,,6,5,7,,3,4,2,,7,8,6,,2,1,3-1[8:1],,,1-5[8:1],,,5,,6-8[8:1],,,8-4[8:1],,,4,,
1b,,,,,,2/6,3/7,4/8,,,1/3,{8},6/8,3,4-8[8:1],5,4/6,,,
{16}3,4,2,,
7h[16:3]/1,,,5,5/6,,4/7,,2h[16:3]/8,,,4,3/4,,2/5,,7h[16:3]/1,,,5,5/6,,4/7,,3^8[8:1]/8^5[8:1],,,,,,,,
2h[16:3]/8,,,4,3/4,,2/5,,7h[16:3]/1,,,5,5/6,,4/7,,2h[16:3]/8,,,4,3/4,,2/5,,1^4[8:1]/6^1[8:1],,,,,,,,
5-1[4:1]/3h[4:1],,,,,,7h[8:3],,,,,,8,1,2,3,
4-8[4:1]/6h[4:1],,,,,,2h[8:3],,,,,,1,8,7,6,
4/5,,3,4,2,,6,5,7,,4,5,3,6,2,7,1,1,8,8,7,7,6,6,5,5,4,4,3,3,2,2,
{4}
1b-5[8:1],8-4[8:1]/1,2-5[8:1]/8,1/2,
8-4[8:1]/1,1-5[8:1]/8,7-4[8:1]/1,7/8,
2-5[8:1]/8,6-1[8:1]/2,3-8[8:1]/6,3/7,
{16}2h[8:1]/1,,4,,7h[8:1]/8,,5,,2,5,3,6,4,7,{8}5,
7-3[8:1]/8,6,8-4[8:1]/7,1,7-3[8:1]/8,6,7/8,,
2-6[8:1]/1,3,1-5[8:1]/2,8,2-6[8:1]/1,3,2/1,,
{16}5h[4:1]/6,,,,8,7,6,5,4h[4:1]/3,,,,1,2,3,4,
{12}5/6,6,6,3/4,3,3,
{16}8,1,7,2,6,3,5,4,
{2}
6h[2:1]/3b,8h[2:1],2h[2:1],4h[4:9],3b<7[2:1],,7<3[2:1],,
8h[2:1]/1b,6h[2:1],4h[2:1],2h[4:9],3b>7[2:1],,7>3[2:1],,
{8}
1b^4[8:1]/8,,6,7p3[8:1],,3,2p6[8:1],,6,5^8[8:1],,1,2,,4/6,,
8^5[8:1],,3,2q6[8:1],,6,7q3[8:1],,3,4^1[8:1],,8,7,,3/5,,
2^5[8:1],1,8,7^2[8:1],6,5,4^7[8:1],3,2,1^4[8:1],8,7,6,,2/4,,
7^4[8:1],8,1,2^7[8:1],3,4,5^2[8:1],6,7,8^5[8:1],1,2,3b,1b/6b,,,
{16}
3V51[8:1]/5,,5h[4:1]/3,,,,,,3/7,,2-6[8:1],1,2,,6,,7-3[8:1],8,7,,3,,1-5[16:1],8,1,,5,,1/8,,7,,
6V48[8:1]/4,,4h[4:1]/6,,,,,,2/6,,7-3[8:1],8,7,,3,,2-6[8:1],1,2,,6,,8-4[16:1],1,8,,4,,1/8,,,,
3V15[8:1]/1,,1h[4:1]/3,,,,,,2/6,,3-7[8:1],4,3,,8,,6-2[8:1],5,6,,2,,4-8[16:1],5,4,,8,,4/5,,7,,
6V84[8:1]/8,,8h[4:1]/6,,,,,,6/3,,5-1[8:1],4,5,,1,,
{24}2,3,4,7,6,5,{8}8w4[8:1],2/6,8b,,,,
{1}
7h[4:3]/3p6[2:1],
2h[4:3]/6q3[2:1],
6h[4:3]/4v5[2:1],
3h[4:3]/5v4[2:1],
{8}
5,4^7[4:1],3,2,,,,,
4,5^2[4:1],6,7,,,,,
5,4<8[4:1],3,2,,,,,
4,5>1[4:1],6,7,,,,,
7,5,4,2/7,,,3V58[2:1]/6V41[2:1],,,,,,,,
{16}
1,8,2,7,1^4[8:1]/8,,5,5,1-6[8:1],,7,7,1-4[8:1],,5,5,1^6[8:1],,8,8,1-5[8:1],,5,5,1,,8,,2/6,,,,
8,1,7,2,8^5[8:1]/1,,4,4,8-3[8:1],,2,2,8-5[8:1],,4,4,8^3[8:1],,1,1,8-4[8:1],,4,4,8,,1,,3/7,,,,
1,8,2,7,1^4[8:1]/8,,5,5,1^6[8:1],,7,7,1-4[8:1],,5,5,1-6[8:1],,8,8,1^4[8:1],,5,5,1^6[8:1],,7,7,1-5[8:1],,5,5,1,,8,,2b/6b,,,,,,
4/8,3/7,2/6,,,5/7,,,2/4,,5,,4-8[8:1],,3,,2h[16:9]/4,,,,,,3,4,5,6,
2,1,4,5,8,7,1,6,8,7,4,5,2,1,3,8,2,1,5,6,8,7,3,4,2h[4:1]/5,,,,1,2,8,1,
7,8,5,4,1,2,8,3,1,2,5,4,7,8,6,1,7,8,4,3,1,2,6,5,7h[4:1]/4,,,,8,1,2,3,
4-8[4:1]/6h[4:1],,,,,,2h[8:3],,,,,,1,8,7,6,
5-1[4:1]/3h[4:1],,,,,,7h[8:3],,,,,,8,1,2,3,
4/5,,7,8,6,,2,1,3,,8,1,7,2,6,3,
{32}5,6,7,8,1,2,3,4,5,6,7,8,1,2,3,4,5,6,7,8,1,2,3,4,
{16}1b/5b,,,,
2/4,,1,8,1h[8:1],,7,7,5,6,4,5,3,4,2,,
5/7,,8,1,8h[8:1],,2,2,4,3,5,4,6,5,7,,
1/3,,4,5,4h[8:1],,6,6,8,7,1,8,2,1,3,,
6/8,,5,4,5h[8:1],,3,3,1,2,8,1,7,8,6,,
1,2,3,1,8,7,1,2,3,1,8,7,1,2,3,4,8,8,6,6,4,4,2,2,8p3[8:1]*q5[8:1],,,,8b,,,,
8,7,6,8,1,2,8,7,6,8,1,2,8,7,6,5,2/4,3,4,5/7,6,5,1/4,2,3,4/8,7,6,4/5,3,2,1,
{12}
8w4[8:1]/7,7/8,7/8,8b,,,
1w5[8:1]/2,1/2,1/2,1b,,,
3/7,3/7,3/7,1/5,1/5,1/5,
{24}3,4,5,8,7,6,1,2,3,7,6,5,
{12},,,1/8,,,
2-5[8:1]/6-1[8:1],2/6,2/6,2b/6b,,,
3-8[8:1]/7-4[8:1],3/7,3/7,3b/7b,,,
{32}1,2,3,4,5,6,7,8,1,2,3,4,5,6,7,8,
{4}1h[4:3]/5,,,{32}8w4[8:1],7,6,5,4,3,2,1,
{1}8b,,,,,E
Re:MASTER
- 修正箇所等ありましたら修正・加筆おねがいします。 -- Sea (2018-06-23 06:13:09)
- 赤以下追加しました。修正箇所等ありましたら修正・加筆をおねがいします。 -- Sea (2018-06-27 02:55:06)
最終更新:2020年05月07日 20:12