POP TEAM EPIC

BPM EASY BASIC ADVANCED EXPERT MASTER Re:MASTER
142 1 4 6 9 11 13

EXPERT MASTER Re:MASTER
譜面制作者 はっぴー 緑風 犬三郎 はっぴー

EASY


BASIC


ADVANCED


EXPERT


MASTER

(142){8}
1-4[8:1],,5-8[8:1],,1,1,2,2,3-6[8:1],,7-2[8:1],,1,1,1/8,,
8-5[8:1],,4-1[8:1],,8,8,7,7,4b/8b,,,,,,,,
3-6[8:1],,8,8-4[8:1],,1,1,,6-3[8:1],,1,1-5[8:1],,8,8,,
3-6[8:1],,7,7-3[8:1],,1,1,,6-3[8:1],,2,2-6[8:1],,8,8,,
3^6[8:1],,8,8-4[8:1],,1,1,,6^3[8:1],,1,1-5[8:1],,8,8,,
3^6[8:1],,7,7-3[8:1],,1,1,,6^3[8:1],,2,2-6[8:1],,8,8,,
{4}
6^1[4:1]/4,4,4,4,7^2[4:1]/4,4,4,4,8^3[4:1]/5,5,5,8-5[8:1]/1,1-4[8:1],8-5[8:1],1-4[8:1],8,
3^8[4:1]/5,5,5,5,2^7[4:1]/5,5,5,5,1^6[4:1]/4,4,4,1V36[2:1]/5V72[2:1],{2},,
4h[8:3]/5h[8:3],1h[8:3]/8h[8:3],4h[8:3]/5h[8:3],1h[8:3]/8h[8:3],
4h[8:5]/5h[8:5],{8},,1^4[8:3]/8^5[8:3],1/8,,,,,6,5,4,3,
{4}2-7[8:1],5,6-3[8:1],1,2^7[8:1],5,4/5,1>7[2:1]/8h[4:3],,,,
{8}1-5[8:1]/2-6[8:1],1/2,{4},4b/8b,,2b/7b,
1^4[8:1]/8,5^8[8:1],1^4[8:1],5^8[8:1],1^4[8:1],{8}8,7,
6-3[8:1],,2^7[8:1],,,,8,8-4[8:1],,2-7[8:1],,5-1[8:1],,4,,3,,2/7,{4}2/7,
8^5[8:1]/1,4^1[8:1],8^5[8:1],4-1[8:1],8^5[8:1],{8}1,2,{4}
3-6[8:1],7^2[8:1],,1-4[8:1],5-8[8:1],3-6[8:1],7-2[8:1],{8}4,4,,2/7,2b/7b,,
1-4[8:1]/5,5,6,6,1-4[8:1]/7,7,8,,8-5[8:1]/4,4,3,3,8-5[8:1]/2,2,1,,
1-4[8:1]/5,5,6,6,1-4[8:1]/7,7,8,,8-5[8:1]/4,4,3,3,8-5[8:1]/2,2,1,,
4-1[8:1]/5,5,7,7,1-4[8:1]/6,6,8,,5-8[8:1]/4,4,2,2,8-5[8:1]/3,3,1,,
1h[4:1]/5h[4:1],,,2/6,3h[4:1]/7h[4:1],,,4/8,4/8,,2/6,2/6,,5,4,3,
2-5[8:1],,7,6-1[8:1],,3,2-5[8:1],,7,6-1[8:1],,3,2-5[8:1],,5,
6-1[8:1],,1,2-5[8:1],,5,6-1[8:1],,1,2-5[8:1],,5,6,7,4,5,6,
7-4[8:1],,2,3-8[8:1],,6,7-4[8:1],,2,3-8[8:1],,6,7-4[8:1],,4,
3-8[8:1],,8,7-4[8:1],,4,3-8[8:1],,6,6,5,5,3,3,4,
{1}5<4[1:1]/4,,,,,,E


Re:MASTER

(142){16}1h[8:1]/8h[8:1],,,,
4/7,,6,5,,5,6,,5/7,,4,5,4,,3,3,4,,2,2,1,,6,5,6,7,6,5,6,,7/8,,
2/5,,3,4,,4,3,,5,5,4,4,{8}4b/8b,,4/8,7^2[8:1]/3,2/6,,,,
4h[16:3]/6h[16:3],,4/6,4h[16:3]/6h[16:3],,4/6,5,2,
1h[16:3]/3h[16:3],,1/3,1h[16:3]/3h[16:3],,1/3,2,8,
1h[16:3]/7h[16:3],,1/7,1h[16:3]/7h[16:3],,1/7,8,6/7,
5h[16:3]/8h[16:3],,5/8,1h[16:3]/4h[16:3],,1/4,2/3,4/5,
3h[16:3]/6h[16:3],,2/5,3h[16:3]/6h[16:3],,4/7,5/6,2/3,
1h[16:3]/4h[16:3],,2/5,1h[16:3]/4h[16:3],,3/8,1/2,2/8,
3h[16:3]/7h[16:3],,4/8,3h[16:3]/7h[16:3],,2/6,3/5,4,4/5,3/6,3/6,

{16}4w8[4:1],5,4,5,{8}4,,,2-6[8:1]*-7[8:1],,2,,7-3[8:1],7h[4:1],,,
{16}6,,6,5,4,,6,,6,5,{8}4,1-4[8:1],8-5[8:1],,,1w5[8:1],8,
{4},8^3[8:1]/7,7v4[8:1],2v5[8:1],1^6[8:1],
{8},,1h[1024:1]/8h[1024:1],2/7,3b/6b,,6p2[8:1],6h[4:1],{4},
1^4[8:1]/5^8[8:1],1p5[8:1]/5p1[8:1],1/5,
2-7[8:1]/3-6[8:1],,7-2[8:1]/6-3[8:1],,
1q6[8:1]/2^5[8:1],1/2,1q6[8:1]/2^5[8:1],1/2,1/2,
{24}
4,5,4,5,4,5,4,5,4,5,,,8,1,8,1,8,1,8,1,8,1,,,
2,3,2,3,2,3,2,3,2,3,,,7,6,7,6,7,6,7,6,7,6,,,
1,8,1,8,1,8,1,8,1,8,1,8,1qq6[2:1],8,1,8,1,8,{8}1,,,,,4,
{4}
2-5[8:1]/6-1[8:1],2/6,3-8[8:1]/7-4[8:1],3/7,
2-7[8:1]/6-3[8:1],2/6,7-2[8:1]/3-6[8:1],7/3,
{8}2-6[8:1],2,1-5[8:1],1,8-4[8:1],8,7-3[8:1],7,1,1,1/8,3/6,,
{64}1b,2b,3b,4b,5b,6b,7b,8b,{4}1b,,8b,

{32}1,2,3,4,5,6,7,8,1,2,3,4,5,6,7,8,1,2,3,4,5,6,7,8,1,2,3,4,5,6,7,8,
{8}1b,,
6^3[8:1],7,8,1,2^7[8:1]/3^6[8:1],2/3,,,2,
1-5[8:1],7,8-3[8:1]/1,,1-4[8:1]/8-5[8:1],,1/8,,2/7,1,1/5,
3^8[8:1]/7^4[8:1],,3/7,,4/8,2^5[8:1]/6^1[8:1],,2/6,,
8>4[4:1],,4<8[4:1],,8>4[4:1],,4,,8,7p2[8:1],8,1,1,
{16}5,4,7,2,8,1,6,3,
{8}2-6[8:1]/7,,2/6,8h[4:1],,1,2h[8:1]/7h[8:1],,

{32}8,7,6,5,4,3,2,1,8,7,6,5,4,3,2,1,8,7,6,5,4,3,2,1,8,7,6,5,4,3,2,1,
{8}8b,,
1-4[8:1],5,6,7,8-5[8:1],1,2,3,4-1[8:1],8,7,6,5/1,
1^4[8:1]/5^8[8:1],,1/5,,2V41[4:1]/3V58[4:1],,,,,5/7,4/5,2/4,
3>7[4:1],,7<3[4:1],,3>7[4:1],,7<3[4:1],,3,,7,7,
5-2[8:1]/6-1[8:1],5/6,,,
1-6[8:1]/2-5[8:1],1/2,,,
1/2,1/2,3/8,1/6,5/6,5-8[8:1]/6,4/7,2/5,,
{16}
2b^5[8:1]/8b,,,6,6,,7^2[8:1],,,3,3,,4^7[8:1],,,8,8,,1^4[8:1],,,7,7,,8,,,4/5,4/5,,
7^4[8:1],,,3,3,,2^7[8:1],,,6,6,,5^2[8:1],,,1,1,,8^5[8:1],,,2,2,,1,,3,,4/5,,2/7,,,,
4^1[8:1]/6,,,5,5,,5^8[8:1],,,4,4,,3^8[8:1],,,4,4,,6^1[8:1],,,5,5,,
3>7[8:1],,,4,4,,6<2[8:1],,,5,5,,3,,
4,5,4-8[8:1],5,2,7,{8}4,,
2/4,5/7,4/5,2/4,
4b-1[8:1]/5b-8[8:1],3b/6b,
{1}4bqq4[1:1]/5bpp5[1:1],,,,,E


  • 修正箇所等ありましたら修正・加筆をおねがいします。 -- Sea (2018-06-30 00:00:00)
名前:
コメント:

タグ:

+ タグ編集
  • タグ:

このサイトはreCAPTCHAによって保護されており、Googleの プライバシーポリシー利用規約 が適用されます。

最終更新:2020年05月10日 17:55