進め!イッスン軍団 -Rebellion of the Dwarfs-

BPM EASY BASIC ADVANCED EXPERT MASTER Re:MASTER
172 3 6 7+ 11 13 -

EXPERT MASTER Re:MASTER
譜面制作者 -

EASY


BASIC

(172.0){1},,
{1}1h[1:1],,
{1}2h[1:1],,
{1}3h[1:1],,
{2}4,4,
{1}4,
{1}5h[1:1],,
{1}6h[1:1],,
{1}7h[1:1],,
{2}8,8,
{1}8,
{2}1b/2b,1/2,
{1}1/2,
{2}7/8,7/8,
{1}7/8,
{2}1/2,1/2,
{1}1/2,
{2}7/8,7/8,
{1}7/8,
{2}1,1,
{4}2,2,2,,
{2}3,3,
{4}4,4,4/5,,
{2}5,5,
{4}6,6,5/6,,
{2}7,7,
{4}8,8,1/8,,
{2}7,7,
{4}6,6,6,,
{2}5,5,
{4}4,4,4/5,,
{2}3,3,
{4}2,2,1/2,,
{2}1,1,
{4}8,8,1/8,,
{4}2,2,2,,
{4}3,4,3,,
{4}4,4,4,,
{4}5,4,5,,
{4}5,5,5,,
{4}6,5,6,,
{4}7,7,7,,
{4}8,1,8,,
{1}2-6[4:3],,
{1}7-3[4:3],,
{1}2-5[4:3],,
{1}7-4[4:3],,
{1}3-7[4:3],,
{1}6-2[4:3],,
{1}3-8[4:3],,
{1}6-1[4:3],,
{2}7b/8b,7/8,
{4}7/8,7/8,7/8,,
{2}1/2,1/2,
{4}1/2,1/2,1/2,,
{2}7/8,7/8,
{4}7/8,7/8,7/8,,
{2}1/2,1/2,
{4}1/2,1/2,1/2,,
{4}7/8,7/8,7/8,,
{4}5/6,5/6,5/6,,
{4}3/4,3/4,3/4,,
{4}1/2,1/2,1/2,,
{4}1/2,1/2,1/2,,
{4}3/4,3/4,3/4,,
{4}5/6,5/6,5/6,,
{4}7/8,7/8,7/8,,
{1}1b/8b,
E

ADVANCED

(172.0){1},,
{1}1h[2:1]/8h[2:1],
{4},3,3,3,
{1}4h[2:1]/5h[2:1],
{4},8,8,8,
{4}1h[4:3],,,8-4[2:1],{1},
{1}3h[2:1],
{1}6h[2:1],
{1}4h[2:1]/5h[2:1],
{4},7,7,7,
{1}1h[2:1]/8h[2:1],
{4},2,2,2,
{4}1h[4:3],,,8,
{1}8<1[4:3],
{4},,3,3/4,
{4}6,5/6,4/7,3/8,
{2}1h[4:1]/2h[4:1],7h[4:1]/8h[4:1],
{4}1/8,2/7,3/6,,
{2}3h[4:1]/4h[4:1],5h[4:1]/6h[4:1],
{4}4/5,3/6,2/7,,
{2}3h[4:1]/8h[4:1],1h[4:1]/6h[4:1],
{4}1/8,1/8,2/7,,
{2}2h[4:1]/5h[4:1],4h[4:1]/7h[4:1],
{4}4/5,4/5,3b/6b,,
{1}1>6[8:5],
{4},8,8,8,
{4}1,1,8h[2:1],,
{4},8,1,2,
{1}3-6[4:1],
{1}7-2[4:1],
{1}1-5[4:1],
{1}8-4[4:1],
{1}5<2[8:5],
{4},4,4,4,
{4}5,5,4h[2:1],,
{4},4,5,6,
{1}7-2[4:1],
{1}3-6[4:1],
{1}8-4[4:1],
{1}1-5[4:1],
{4}6,5/7,3,2/4,
{4}1/5,6/8,7,,
{4}3,2/4,6,5/7,
{4}4/8,1/3,2,,
{4}7,6/8,2,1/3,
{4}4/8,5/7,6,,
{4}2,1/3,7,6/8,
{1}1-4[4:1]/5-8[4:1],
{1}6<2[8:3],
{1}3V15[2:1],
{1}6p4[2:1],
{1}3s7[2:1],
{1}6V41[2:1],
{1}2pp7[2:1],
{2}6h[2:1],5,
{2}4h[2:1],5,
{1}3>7[8:3],
{1}6V84[2:1],
{1}3q5[2:1],
{1}6z2[2:1],
{1}3V58[2:1],
{1}7qq2[2:1],
{2}3h[2:1],4,
{1}4v1[8:3]/5v8[8:3],
{2}7h[4:1]/8h[4:1],1h[4:1]/2h[4:1],
{4}1/8,2/7,3/6,,
{2}5h[4:1]/6h[4:1],3h[4:1]/4h[4:1],
{4}4/5,3/6,2/7,,
{2}1h[4:1]/6h[4:1],3h[4:1]/8h[4:1],
{4}1/8,1/8,2/7,,
{2}3h[4:1]/8h[4:1],1h[4:1]/6h[4:1],
{4}1/8,1/8,2/7,,
{8}7/8,,,,1/6,1/6,,,
{4}3/4,3/4,2/5,,
{8}1/2,,,,3/8,3/8,,,
{4}5/6,5/6,4/7,,
{8}4/5,,,,3/6,3/6,,,
{4}2/7,2/7,1/8,,
{8}1/8,,,,2/7,2/7,,,
{4}2/8,1/7,3b/6b,,
{1}4qq1[4:3]/5pp8[4:3],,
E

EXPERT

(172.0){1},,
{1}6h[1:1],
{1}5h[1:1],
{1}4h[1:1],
{1}3h[1:1],
{1}5h[1:1],
{1}4h[1:1],
{1}5h[1:1],
{1}4,
{2}5h[2:1],4,
{4}3,3/4,4/5,5/6,
{4}6h[2:1],5,4,,
{4}6,5/6,4/5,3/4,
{4}4,5,4,5,
{8}4h[8:3]/5h[8:3],,,,,4/5,,4bqq1[8:7]/5bpp8[8:7],{1},,
{8}3/4,,,,2/5,2/5,,,
{8}3/4,,3/4,,1/7,1/7,,,
{8}5/6,,,,4/7,4/7,,,
{8}5/6,,5/6,,3/8,3/8,,,
{8}7/8,,,,1/6,1/6,,,
{8}7/8,,7/8,,2/5,2/5,,,
{8}4/5,,,,3/6,3/6,,7/2<6[8:3],
{4},,,1/8,
{4}3/4,2,4/5,6,
{4}3/5,1h[4:1],8h[4:1],7,
{4}5/6,7,4/5,3,
{4}4/6,8h[4:1],1h[4:1],2,
{4}3/4,1,5/6,8,
{4}3/4,2/4,4/5,3/6<3[2:1],
{4},,,6/3>6[2:1],
{4},,,3/6,
{4}5/6,7,4/5,3,
{4}4/6,8h[4:1],1h[4:1],3,
{4}3/4,2,4/5,6,
{4}3/5,1h[4:1],8h[4:1],6,
{4}5/6,8,3/4,1,
{4}5/6,5/7,4/5,6/3>6[2:1],
{4},,,3/6<3[2:1],
{4},,,3/6,
{8}7/8,,5/6,,3,3,2/4,,
{8}1/2,,3/4,,6,6,5/7,,
{8}7/8,,3/4,,2,2,1/3,,
{8}1/2,,5/6,,7,7,6/8,,
{8}3/5,,1/3,,8,7,1/6,,
{8}4/6,,6/8,,1,2,3/8,,
{8}4/5,6,7/8,,4/5,3,1/2,,
{8}4/5,4/5,3/6,,1h[4:1],,8b,,
{8}6/5>1[2:1],,,,8,8,8,,
{8}5>1[2:1],,,,7,7,7,,
{1}5/6qq3[4:3],
{8},,4,4,5,5,4,,
{1}1/2qq7[4:3],
{8}6,,4/5,4/5,4/5,,6/5qq2[4:3],,
{4},,,4pp7[4:3],{1},
{8}3/4<8[2:1],,,,1,1,1,,
{8}4<8[2:1],,,,2,2,2,,
{1}4/3q5[4:3],
{8},,6,6,5,5,4,,
{1}8/7pp4[4:3],
{8}3,,4/5,4/5,4/5,,{4}3>6[4:3]/6<3[4:3],{1},
{1}2/7,
{8}4/5,,,,2/4,2/4,,,
{8}3/5,,3/5,,7/8,7/8,,,
{8}4/5,,,,5/7,5/7,,,
{8}4/6,,4/6,,1/2,1/2,,,
{8}4/5,,,,6/7,6/7,,,
{8}5/6,,5/6,,2/3,2/3,,,
{8}4/5,,,,2/3,2/3,,1/7<2[8:3],
{4},,,1/8,
{2}1b/2b-5[8:1],1/2-5[8:1],
{4}1/2,7/8,1/2-6[8:1],,
{2}8b/7b-4[8:1],8/7-4[8:1],
{4}7/8,1/2,8/7-3[8:1],,
{2}8b/1b-5[8:1],1/8-4[8:1],
{2}7/1-6[8:1],2/8-3[8:1],
{2}6b/4b-1[8:1],3/5-8[8:1],
{4}6/4-1[8:1],,4/5,3/6,
{1}1b/8b,
E

MASTER

(172.0){4}4,4,5,5,
{4}4,4,5,5,
{4}4/8,4,4/5,5,
{4}4,4/5,3/5,2/5,
{4}4/5,4/8,4/5,5,
{4}4,4/5,3/5,2/5,
{4}4/5,4,5,4/5,
{8}4/5,,4/7,6,5,4,5,5,
{4}4,4,5,5,
{4}4/6h[4:1],4,5,5,
{4}7/4h[8:1],4h[8:1],4/5h[8:1],5h[8:1],
{4}4h[8:1],5/4h[8:1],3/5h[8:1],2/5h[8:1],
{4}5/4h[8:1],8/4h[8:1],4/5h[8:1],5h[8:1],
{4}4h[8:1],5/4h[8:1],3/5h[8:1],2/5h[8:1],
{8}4h[16:1],5h[16:1],4h[16:1],5h[16:1],4h[16:1],4h[16:1],5h[16:1],5h[16:1],
{8}4^1[8:1],,8,8^5[8:1],,1,,2b/7b,
{8},6,5/7,4,5,3,2/4,5,
{8}4,6,5/7,4,5,3,2/7,,
{8}2h[8:3]/6h[8:7],,,,2,2h[2:1],,,
{8}6h[8:3],,2h[8:5],,6,6h[4:3],,,
{8}3h[8:7],,,,7,7h[2:1],,,
{8}3h[8:3],,7h[8:5],,3,3h[4:3],,,
{8}8h[8:7],,,,4,4h[2:1],,,
{8}8h[8:3],,4h[8:5],,8,8h[4:3],,,
{8}5h[4:3],,,,1,1h[2:1],,5h[2:1],
{8},,1h[8:3],,5,5,1b/5,,
{8}6^1[8:1],,5,,4^7[8:1],,3,3h[4:1],
{8},8,8^5[8:1],,3^8[8:1],,6^3[8:1],,
{4}1^6[8:1],4<3[2:1],,,
{4},5h[4:1],4h[4:1],2^7[8:1],
{4}5,6^3[8:1],1,2^7[8:1],
{8}5,,6,6h[4:1],,1>8[8:5],,,
{4},,,5/2-6[8:1],
{4}8,7-3[8:1],1,1/8,
{8}3^8[8:1],,4,,5^2[8:1],,6,6h[4:1],
{8},1,1^4[8:1],,6^1[8:1],,3^6[8:1],,
{4}8^3[8:1],5>6[2:1],,,
{4},4h[4:1],5h[4:1],7^2[8:1],
{4}4,3^6[8:1],8,7h[4:1],
{8}2,,1/8,1/8,,4^1[8:3]/5^8[8:3],,,
{8},,,,4/7,4/7,,2/5,
{8},4/5,4/5,,2/7,,8/3-8[8:1],,
{16}6-1[8:1],,,,2,,,,3,4,2,,1/6-1[8:1],,,,
{16}3-8[8:1],,,,7,,,,6,5,7,,6/2-7[8:1],,,,
{16}5-8[8:1],,,,3,,,,2,1,3,,3/7-2[8:1],,,,
{8}4-1[8:1],,6pp1[8:3],,3,3,3-8[8:1],,
{8}7-4[8:1],,1-5[8:1],,8,7,3/6-1[8:1],,
{8}2-5[8:1],,8-4[8:1],,1,2,7/3^8[8:1],,
{8}6^3[8:1],,1^6[8:1],,3,2,1s5[8:3]/8z4[8:3],,
{4},,1-5[8:1]/8-4[8:1],1b/8b,
{16}3h[8:1]/6h[8:1],,,,3/6,,2/5,,1h[16:1],4h[16:1],1h[16:1],4h[16:1],1h[16:1],4h[16:1],1h[16:1],,
{16}2-7[8:1]/3-6[8:1],,,,,,,,{12}8h[1993:166],{995}1h[1993:166],,,,,,,,,,,,,,,,,,,,,,,,,,,,,,,,,,,,,,,,,,,,,,,,,,,,,,,,,,,,,,,,,,,,,,,,,,,,,,,,,,,{12}7h[1993:166],2h[1993:166],{995}6h[1993:166],,,,,,,,,,,,,,,,,,,,,,,,,,,,,,,,,,,,,,,,,,,,,,,,,,,,,,,,,,,,,,,,,,,,,,,,,,,,,,,,,,,{12}3,
{8}4h[8:1]/5h[8:1],,1h[8:1]/8h[8:1],,3h[16:1]/7h[16:1],3h[16:1]/7h[16:1],3h[16:1]/7h[16:1],3h[16:1]/7h[16:1],
{12}8<3[4:1],{995}8,,,,,,,,,,,,,,,,,,,,,,,,,,,,,,,,,,,,,,,,,,,,,,,,,,,,,,,,,,,,,,,,,,,,,,,,,,,,,,,,,,,{12}8,3V14[4:1]*V16[4:1],,,,,,,,,
{16}3v5[8:1]/7v5[8:1],,,,,,,,2h[16:1],5h[16:1],2h[16:1],5h[16:1],2h[16:1],5h[16:1],2h[16:1],,
{16}3^8[8:1]/4^7[8:1],,,,,,,,{12}1h[1993:166],{995}8h[1993:166],,,,,,,,,,,,,,,,,,,,,,,,,,,,,,,,,,,,,,,,,,,,,,,,,,,,,,,,,,,,,,,,,,,,,,,,,,,,,,,,,,,{12}2h[1993:166],7h[1993:166],{995}3h[1993:166],,,,,,,,,,,,,,,,,,,,,,,,,,,,,,,,,,,,,,,,,,,,,,,,,,,,,,,,,,,,,,,,,,,,,,,,,,,,,,,,,,,{12}6,
{16}4h[8:1]/5h[8:1],,,,2h[8:1]/7h[8:1],,,,6h[16:1],3h[16:1],6h[16:1],3h[16:1],6h[16:1],3h[16:1],6h[16:1],,
{2}4^1[8:1]/5^8[8:1],1^4[8:1]/8^5[8:1],
{16}3h[8:1]/6h[8:1],,,,3/6,,4/7,,8h[16:1],5h[16:1],8h[16:1],5h[16:1],8h[16:1],5h[16:1],8h[16:1],,
{16}6-3[8:1]/7-2[8:1],,,,,,,,{12}1h[1993:166],{995}8h[1993:166],,,,,,,,,,,,,,,,,,,,,,,,,,,,,,,,,,,,,,,,,,,,,,,,,,,,,,,,,,,,,,,,,,,,,,,,,,,,,,,,,,,{12}2h[1993:166],7h[1993:166],{995}3h[1993:166],,,,,,,,,,,,,,,,,,,,,,,,,,,,,,,,,,,,,,,,,,,,,,,,,,,,,,,,,,,,,,,,,,,,,,,,,,,,,,,,,,,{12}6,
{8}4h[8:1]/5h[8:1],,1h[8:1]/8h[8:1],,2h[16:1]/6h[16:1],2h[16:1]/6h[16:1],2h[16:1]/6h[16:1],2h[16:1]/6h[16:1],
{12}1>6[4:1],{995}1,,,,,,,,,,,,,,,,,,,,,,,,,,,,,,,,,,,,,,,,,,,,,,,,,,,,,,,,,,,,,,,,,,,,,,,,,,,,,,,,,,,{12}1,6V83[4:1]*V85[4:1],,,,,,,,,
{16}2v4[8:1]/6v4[8:1],,,,,,,,7h[16:1],4h[16:1],7h[16:1],4h[16:1],7h[16:1],4h[16:1],7h[16:1],,
{16}5^2[8:1]/6^1[8:1],,,,,,,,{12}8h[1993:166],{995}1h[1993:166],,,,,,,,,,,,,,,,,,,,,,,,,,,,,,,,,,,,,,,,,,,,,,,,,,,,,,,,,,,,,,,,,,,,,,,,,,,,,,,,,,,{12}7h[1993:166],2h[1993:166],{995}6h[1993:166],,,,,,,,,,,,,,,,,,,,,,,,,,,,,,,,,,,,,,,,,,,,,,,,,,,,,,,,,,,,,,,,,,,,,,,,,,,,,,,,,,,{12}3,
{16}4h[8:1]/5h[8:1],,,,2h[8:1]/7h[8:1],,,,1h[16:1],8h[16:1],1h[16:1],8h[16:1],1h[16:1],8h[16:1],1h[16:1],,
{8}3/6,3/6,4^1[4:1]/5^8[4:1],,,,,,
{8}3h[8:3]/7h[8:7],,,,1,3h[2:1],,,
{8}7h[8:3],,3h[8:5],,5,7h[4:3],,,
{8}2h[8:7],,,,5,6h[2:1],,,
{8}2h[8:3],,6h[8:5],,8,2h[4:3],,,
{8}5h[8:7],,,,7,1h[2:1],,,
{8}5h[8:3],,1h[8:5],,3,5h[4:3],,,
{8}8h[4:3],,,,3,4h[2:1],,8h[2:1],
{8},,4h[8:3],,8,8,4b/8,,
{8}6/2-6[8:1],,2/8h[16:1],7h[16:1],2^7[8:1]/6^4[8:1],,2,,
{4}8h[8:1]/2-6[8:1],2/4h[8:1],8h[8:1]/2^7[8:1],2/4h[8:1],
{8}6/2-6[8:1],,2/8h[16:1],7h[16:1],2^7[8:1]/6-4[8:1],,2,,
{4}8h[8:1]/2-6[8:1],2/4h[8:1],8h[8:1]/2^7[8:1],2/4h[8:1],
{8}3/7-3[8:1],,7/1h[16:1],2h[16:1],3-5[8:1]/7^2[8:1],,7,,
{4}1h[8:1]/7-3[8:1],7/4h[8:1],1h[8:1]/7^2[8:1],7/4h[8:1],
{8}3/7-3[8:1],,7/1h[16:1],2h[16:1],3/7^2[8:1],,7/5h[16:1],4h[16:1],
{4}3/7-3[8:1],7/2-6[8:1],2/8-4[8:1],1/8,
{1}2b/7b,
E

Re:MASTER


名前:
コメント:

タグ:

+ タグ編集
  • タグ:

このサイトはreCAPTCHAによって保護されており、Googleの プライバシーポリシー利用規約 が適用されます。

最終更新:2022年08月11日 15:17