インビジブル

アーティスト kemu

BPM EASY BASIC ADVANCED EXPERT MASTER Re:MASTER
192 3 6 7 11 12 13+

EXPERT MASTER Re:MASTER
譜面制作者 玉子豆腐 緑風 犬三郎 華火職人

EASY


BASIC

(192.0){1},,,,,
{2}1,1,
{2}2,2,
{2}3,3,
{4}4,4,4,,
{2}5,5,
{2}6,6,
{2}7,7,
{4}8,8,8b,,
{4}1,1,1,,
{4}2,2,2,,
{1}3h[2:1],
{1}3h[2:1],
{4}4,4,4,,
{4}5,5,5,,
{1}6h[2:1],
{1}6h[2:1],
{4}7,7,7,,
{4}8,8,8,,
{1}1h[2:1],
{1}1h[2:1],
{4}8,8,8,,
{4}7,7,7,,
{1}6h[2:1],
{1}5h[2:1]/6h[2:1],
{2}4,4,
{4}3/4,3/4,3/4,,
{2}5,5,
{4}5/6,5/6,5/6,,
{2}3/5,3/5,
{4}4/6,4/6,4/6,,
{4}5,5,4,4,
{4}4/5,4/5,3b/6b,,
{2}3/4,3/4,
{2}5/6,5/6,
{2}7/8,7/8,
{4}1,1,1,,
{2}7/8,7/8,
{2}5/6,5/6,
{2}3/4,3/4,
{4}2,2,1/2,,
{2}3/4,3/4,
{2}5/6,5/6,
{2}3/4,5/6,
{4}4,5,3/6,,
{2}7/8,7/8,
{2}1/2,1/2,
{2}7/8,1/2,
{4}8,1,2b/7b,,
{1}2-5[2:3],,,
{2},8-4[4:7],{1},,,
{2},3/4,
{2}3/4,5/6,
{4}5/6,,4,4,
{4}5,5,4/5,4/5,
{2}3/6,5/6,
{2}5/6,3/4,
{4}3/4,,5,5,
{4}4,4,4/5,4/5,
{2}3b/6b,2/8,
{2}2/8,1/7,
{4}1/7,,2,2,
{4}3,3,4/5,4/5,
{2}3/6,4/6,
{2}4/6,3/5,
{4}3/5,,6,6,
{4}7,7,1/8,1/8,
{2}2b/7b,3/4,
{2}5/6,3/5,
{4}4/6,,5,5,
{4}4,4,4/5,4/5,
{2}3/6,7/8,
{2}1/2,1/7,
{4}2/8,,1,1,
{4}8,8,1/8,1/8,
{2}2/7,1b/8b,
{2},1,
{2}1,2,
{2}2,3,
{4}3,,4,4,
{2}4,5,
{2}5,6,
{2}6,7,
{4}7,,8,8,
{2}1/8,7,
{2}7,6,
{2}6,5,
{4}5,,4,4,
{2}4,3,
{2}3,2,
{2}2,1,
{2}1,1/8,
{2}8-4[4:9],{1},,,
E

ADVANCED

(192.0){1},,,,,
{4}6,6,5/6,,
{4}3,3,3/4,,
{4}7,7,7/8,,
{4}2,2,1/2,,
{4}6,6,5/7,,
{4}3,3,2/4,,
{4}7,7,6/8,,
{4}2,2,1b/3b,,
{4}3,3,4/5,,
{4}6,6,4/5,,
{1}3h[2:1]/4h[2:1],
{1}5h[2:1]/6h[2:1],
{4}6,6,4/5,,
{4}3,3,4/5,,
{1}5h[2:1]/6h[2:1],
{1}3h[2:1]/4h[2:1],
{4}5,5,3/4,,
{4}4,4,5/6,,
{2}7h[2:1],8h[2:1],
{2}1h[2:1],2,
{4}4,4,5/6,,
{4}5,5,3/4,,
{2}2h[2:1],1h[2:1],
{2}8h[2:1],7,
{2}6h[2:3],5,
{2}4,5,
{2}3h[2:3],4,
{2}5,4,
{2}7h[2:1],8,
{2}2h[2:1],1,
{1}1-5[2:1]/8-4[2:1],
{4}4/5,4/5,3b/6b,,
{4}7,7,7/8,7/8,
{4}2,2,1/2,1/2,
{4}7,7/8,2,1/2,
{4}1/8,2b/7b,2b/7b,,
{4}3,3,3/4,3/4,
{4}6,6,5/6,5/6,
{4}3,3/4,6,5/6,
{4}4/5,3/6,2b/7b,,
{4}2h[2:1],,1,3/8,
{4}7h[2:1],,8,1/6,
{4}7/8,7/8,1/2,1/2,
{4}1/8,2/7,2b/7b,,
{4}3h[2:1],,4,2/5,
{4}6h[2:1],,5,4/7,
{4}5/6,5/6,3/4,3/4,
{4}4/5,3/6,2b/7b,,
{4}7,6,5,4,
{4}3,2,1/8,2,
{4}3,4,5,6,
{4}7,1/8,7,6,
{4}5,3/4,2,3,
{4}4,5,4/5,3/6,
{4}2/7,1/8,1/8,2b/7b,
{2}2b/7b,1h[2:1]/2h[2:1],
{2},7h[2:1]/8h[2:1],
{2},1h[4:1]/2h[4:1],
{4}7h[4:1]/8h[4:1],,1/8,2b/7b,
{2}2b/7b,5h[2:1]/6h[2:1],
{2},3h[2:1]/4h[2:1],
{2},5h[4:1]/6h[4:1],
{2}3h[4:1]/4h[4:1],4^1[2:1]/5^8[2:1],
{4},,7/8,7/8,
{4}1/6,7/8,1/2,1/2,
{4}3/8,1/2,7/8,1/6,
{4}2/5,3/4,4/5,3/6,
{4}3b/6b,,5/6,5/6,
{4}4/7,5/6,3/4,3/4,
{4}2/5,3/4,3/4,2/5,
{4}1/6,7/8,1,8,
{4}1b/8b,,2h[4:1],1,
{4}3/8,1/2,7h[4:1],8,
{4}1/6,7/8,7/8,5/6,
{4}3/4,1/2,1/8,2/7,
{4}2b/7b,,3h[4:1],4,
{4}2/5,3/4,6h[4:1],5,
{4}4/7,5/6,5/6,7/8,
{4}1/2,3/4,4/5,3/6,
{4}2/7,1b/8b,2h[4:3]/7h[4:3],,
{4},,2,2,
{4}1/3,,7,7,
{4}6/8,,7/8,7/8,
{4}1/2,1/2,1/8,2/7,
{4}2/7,,6,6,
{4}5/7,,3,3,
{4}2/4,,3/4,3/4,
{4}5/6,5/6,4/5,3/6,
{2}3/6,5h[2:1],
{2}4h[2:1],3h[2:1],
{2}2,4h[2:1],
{2}5h[2:1],6h[2:1],
{2}7,7h[2:1]/8h[2:1],
{2},1h[2:1]/2h[2:1],
{4},,1,8,
{4}7,6,5,4,
{4}4qq1[1:2]/5pp8[1:2],{1},,,
E

EXPERT

(192.0){1},
{2}5/6,3/4,
{4}6,5,4,3,
{2}3/4,5/6,
{4}3/6,4/5,2/7,1b/8b,
{8}3/4,,1,,3,3,4,,
{8}1,1,7,,5/6,,1/8,,
{8}5/6,,8,,6,6,5,,
{8}8,8,2,,3/4,,1/8,,
{8}3/4,,1,,3,3,4,,
{8}1,1,7,,5/6,,1/8,,
{8}5/6,,8,,6,6,5,,
{8}7,7,1,1,8,8,2,,
{4}3/4,3,1/2,2,
{4}3/4,3,4,5,
{4}6h[4:1],5,7h[4:1],8,
{4}6h[4:1],5,4,3,
{4}3/4,3,1/2,2,
{4}3/4,3,4,5,
{4}6h[4:1],5,7h[4:1],8,
{4}6,5,4/7,,
{4}1/2,2,3/4,3,
{4}1/2,2,1,8,
{4}7h[4:1],8,6h[4:1],5,
{4}7h[4:1],8,7/8,,
{4}1/2,2,3/4,3,
{4}1/2,2,1,8,
{4}7h[4:1],6,6h[4:1],5,
{4}5h[4:1],4,4,4/5,
{2}6/5-1[16:3],6-8[16:3],
{4}5,6,4/7,,
{2}3/4-8[16:3],3-1[16:3],
{4}4,3,2/5,,
{2}7/8-4[16:3],7-5[16:3],
{4}1,8,2/7,1/8,
{8}1,8,1,8,1,8,1,8,
{8},2/7,,1b/8b,1b/8b,,,,
{8}1/8,,2,1,3/8,,7,8,
{8}1/6,,2,1,3/8,,1/8,,
{4}2/7,5/7,2/4,2/7,
{4}1/8-5[8:1],1-4[8:1],8b,,
{8}1/8,,7,8,1/6,,2,1,
{8}3/8,,7,8,1/6,,1/8,,
{8}2/7,,4/5,,7,8,1,,
{2}1-6[8:1]/2-5[8:1],4b/7b,
{4}2-5[8:1],6,7-4[8:1],3,
{4}1-5[8:1],6,8-4[8:1],3,
{4}1,8,5/6,3/4,
{4}7/2h[4:1],1,3b/8b,,
{2}1-5[8:1]/2-4[8:1],7-5[8:1]/8-4[8:1],
{2}1-5[8:1]/2-4[8:1],7-5[8:1]/8-4[8:1],
{8}2,,5/7,,4,5,3/6,,
{2}1-4[8:1]/8-5[8:1],3b/6b,
{8}1/2h[8:3],,,4h[8:3],,,5h[8:3],,
{8},7h[8:3],,,8,,8/7h[8:3],,
{8},5h[8:3],,,4h[8:3],,,2h[8:3],
{8},,1,,8/1h[8:3],,,3h[8:3],
{8},,5h[8:3],,,7h[8:3],,,
{4}8,6/1>6[4:3],,,
{8},,,,,1b/8b,,2b/7b,
{2}2b/7b,3/4,
{2}5/6,2/3,
{8}6/7,,8,1,1/8,,,,
{4}3/6,2/7,8/1-4[8:1],8-5[8:1],
{2}1b,5/6,
{2}3/4,6/7,
{4}2/3,,7,6,
{4}5,4-8[16:3],,,
{8}1b/7b,,,,1/8,,7,8,
{8}1/5,,2,1,4/8,,7,8,
{4}1/5,1/8,3/6,2/5,
{4}4/7,2/7,8/1-4[8:1],8-5[8:1],
{8}1b,,,,1/8,,2,1,
{8}4/8,,7,8,1/5,,2,1,
{4}4/8,1/8,3/6,4/5,
{8}2,1,8,,7-4[8:1]/8-3[8:1],,,,
{4}2b/5b,,7-3[8:1],1,
{4}2-6[8:1],8,8p4[8:1],2,
{4}1q5[8:1],7,8,1/8,
{4}2/4,5/7,3/7h[4:1],8,
{2}1b/6b,7^5[8:1]/8p4[8:1],
{2}1q5[8:1]/2^4[8:1],7^5[8:1]/8p4[8:1],
{4}1q5[8:1]/2^4[8:1],,7,2/5,
{8}5,4,3/6,,1-5[8:1]/8-6[8:1],,,,
{4}4/7,1/2,4/8,,
{8},,1b,,2/7,,6,6,
{8}5,,2,2,4,,8,8,
{8}5,,1/2,,3/8,,4,4,
{4}5,3/6,1/5,4/8,
{8}1/5,,,,2/7,,3,3,
{8}4,,7,7,5,,1,1,
{8}4,,7/8,,1/6,,5,5,
{4}4,3/6,4/8,3/7,
{4}2/6,,1/2h[4:1],8,
{4}1/2h[4:1],7,1/2h[4:1],6,
{8}2,8,8,,8/7h[4:1],,1,,
{4}8/7h[4:1],2,8/7h[4:1],3,
{8}4/6,,,,3/6,,4,5,
{8}3,,6,5,7,,3,4,
{8}1,,7,5,8,,2/6,,
{8}1,1,8,8w4[2:1],,,,,
{8},,,6b/2b<4[8:15],{1},,,
E

MASTER

(192.0){1},,,,
{4},,,3b/6b,
{8}3/7-4[8:1],,2,2-5[8:1],,7,7-4[8:1],,
{8}2,2-5[8:1],,8,8,,3/4,,
{8}5/2-5[8:1],,7,7-4[8:1],,2,2-5[8:1],,
{8}7,7-4[8:1],,1,1,,5/6,,
{8}4/7-4[8:1],,1,2-5[8:1],,8,7-4[8:1],,
{8}1,2-5[8:1],,8,7,,3/4,,
{8}5/2-5[8:1],,8,7-4[8:1],,1,2-5[8:1],,
{8}8,7-4[8:1],,1,2,,2/6,,
{8}7^2[8:1],,4,4,,6,5/7,,
{4}4/5,2/4,1/8,4/5,
{8}2/7h[4:1],,5,5h[4:1],,4,4h[4:1],,
{8}2,2h[4:1],,7,7,,4/5,,
{8}2^7[8:1],,5,5,,3,2/4,,
{8}4/5,4/5,,1/8,1/8,,4/5,,
{8}7/3^6[8:1],,8,8,,2/7,,4,
{8}4,5-8[8:1],,1,1,,,3/4,
{8}3/4,,5/6,5/6,,5/7,5/7,,
{8}2/4,4/2^7[8:1],,5,5,,4/5,,
{4}2/7h[2:1],6,2h[2:1],3,
{4}7,2/7,3h[4:1]/4h[4:1],,
{8}3-6[8:1],,7,7-2[8:1],,3,3-6[8:1],,
{8}8,8h[8:3],,1,1,,3/6,,
{4}7/2-4[8:1],8,2/7-5[8:1],1,
{4}7/2-4[8:1],8,2/7,5/6,
{4}5/6<3[2:1],5,5,5,
{4}3/4,3/4,2/5,3/4,
{4}4/3>6[2:1],4,4,4,
{4}5/6,5/6,4/7,5/6,
{4}5/6<3[2:1],5,5,5,
{4}3/4,3/4,2/5,3/6,
{8}1/8,1/8,1/8,1/8,1/8,1/8,1/8,1/8,
{8},4/5,,2/7,2/7,,8b,,
{4}2-6[8:1],7-3[8:1],1-5[8:1],8-4[8:1],
{4}2-6[8:1],7-3[8:1],1-5[8:1],8,
{8}2/7,,6/4^1[8:1],,5,,7,7,
{4}5/6,3/7,3/7,4/5,
{2}7-5[8:1]/8-4[8:1],1-5[8:1]/2-4[8:1],
{2}7-5[8:1]/8-4[8:1],1-5[8:1]/2-4[8:1],
{4}8^5[8:1],1^4[8:1],8-4[8:1],1,
{8}4/5,,1/8,1/8,2b/7b,,4/5,,
{2}1/2-5[8:1],8/7-4[8:1],
{4}1-5[8:1],8-4[8:1],2-7[8:1],6-3[8:1],
{8}1h[8:3],,,8,8,,2/7,,
{4}4-8[8:1]/5-1[8:1],,2/7,4/5,
{2}3-1[8:1]/4-8[8:1],5-1[8:1]/6-8[8:1],
{2}3-1[8:1]/4-8[8:1],5-1[8:1]/6-8[8:1],
{4}2-7[8:1],5-8[8:1],1-4[8:1],8h[4:1],
{4}1b,,,4/5,
{8}8/3-6[8:1],,7,7-2[8:1],,3,3-6[8:1],,
{8}7,7-4[8:1],,3,3,,1/6-3[8:1],,
{8}2,2-7[8:1],,6,6-3[8:1],,2,2-5[8:1],
{8},6,6,,8/3-6[8:1],,7,7-2[8:1],
{8},3,3-6[8:1],,7,7-4[8:1],,3,
{4}3-8[8:1],6,1^4[8:1],8^5[8:1],
{8}1-5[8:1],,8,8,,2/7,,2/7,
{2}2/7,2/6,
{2}3/7,2/5,
{4}4/5,2/6,3/7,,
{4}2/6,,4/5,2/7,
{8}2/7,2/7,2/7,,3/7,,,,
{2}2/6,4/7,
{8}1/8,,,,4/5,4/5,3/6,3/6,
{8}2/7,2/7,1/8,,1b,,,,
{4}1-6[8:1]/2-5[8:1],,7-3[8:1],2-6[8:1],
{4}8-4[8:1],1-5[8:1],7-3[8:1],2-6[8:1],
{4}8-4[8:1],1,2/7,3/5^8[8:1],
{8}4,,2,2,3/4,,2/6,,
{4}2/6,4/5,1-5[8:1]/2-4[8:1],,
{2}7-5[8:1]/8-4[8:1],1-5[8:1]/2-4[8:1],
{4}7-5[8:1]/8-4[8:1],,1^4[8:1],8^5[8:1],
{8}1-5[8:1],,8,,4/5,,1/8,1/8,
{4}2b/7b,4/5,4/6-3[8:1],,
{4}5/2-7[8:1],,1-4[8:1],5-8[8:1],
{8}2-7[8:1],,6-3[8:1],,1h[8:3],,,8,
{4}8,2/7,4-1[8:1]/5-8[8:1],,
{4}2/7,4/5,5-1[8:1]/6-8[8:1],,
{2}3-1[8:1]/4-8[8:1],5-1[8:1]/6-8[8:1],
{4}3-1[8:1]/4-8[8:1],,7-2[8:1],4-1[8:1],
{4}8,4/5,1v4[8:1]/8-5[8:1],,
{4}2/7,1/8,1h[8:5]/8h[8:5],,
{8},,1b/8b,,3^6[8:1],,8,8,
{8}8/1-5[8:1],,8,,6^3[8:1],,1,1,
{8}1/8-4[8:1],,1,,3^6[8:1],,8,8,
{4}8/1-5[8:1],6-2[8:1],1^4[8:1],8,
{8}2/7,,4/5,,6^3[8:1],,1,1,
{8}1/8-4[8:1],,1,,3^6[8:1],,8,8,
{8}8/1-5[8:1],,8,,6^3[8:1],,1,1,
{4}1/8-4[8:1],3-7[8:1],8^5[8:1],1,
{8}1/8,1/8,2/7,,3-6[8:1],,8,8-5[8:1],
{8},1,,4-1[8:1],,6-3[8:1],,1,
{8}1,,3/7,,6-3[8:1],,1,1-4[8:1],
{8},8,,5-8[8:1],,3-6[8:1],,8,
{4}8,2/6,8/4^1[8:1],6,
{4}4/8^5[8:1],2,1/5^8[8:1],3,
{4}5/1^4[8:1],7,7-2[8:1],3-6[8:1],
{8}8,,1/8,1/8,,3/6,4/5,,
{8}4,4>6[8:13],5,5h[16:31],,,,,{1},
{16},,,,,4,
E

Re:MASTER

(192){8}3h[8:3],,,4,3h[8:3],,,4,
6,,5,,3/4,,4/5,,7,,6,6,3,3,4,,5/7,,2/4,,
2bv4[8:1]/7bv5[8:1],,2b/7b,,

7,8,7,6-3[8:1]/1,,6,2,1,8,2/7,6,5,6,5,4/7,,
3,4,3,2-7[8:1]/5,,2,6,5,4,3/6,2,1,2,1,3/8,,
2,1,2,3-6[8:1]/8,,3,7,8,1,2/7,3,4,3,4,2/5,,
6,5,6,7-2[8:1]/4,,7,3,4,3,2/5,3,4,2^5[8:1],,,,

6,6h[8:13],,3,3,,5,5,5,,3,,4,4,4,,
2-4[8:1],,1,1-5[8:1],,8,8-6[8:1],,5,5s1[4:1],,,,,,,
3,3h[8:13],,6,6,,4,,5,5,,4,{4}4,6,
3^6[4:1],6-2[4:1],2^7[4:1],7-3[4:1],3^6[4:1],6p1[4:1],,{8},7,
7,7h[8:13],,5,5,,2,,6,6,,4,{4}4,2,
5q1[4:1],1q5[4:1],5q1[4:1],1q5[4:1],5q1[4:1],1>5[4:1]*<5[4:1],,,
{8}
2,2h[8:13],,4,4,,7,,3,3,,6,{4}6,5,
1^4[8:1]/5h[4:1],1,1-4[8:1]/6h[4:1],1,1-5[8:1]/7h[4:1],1,8,1/2,

{8}
5/6,,5/6,7,5/6,,5q4[4:1]/6<3[4:1],7,5/6,,,,2/5,,3/4,5,
3/4,,3/4,2,3/4,,3>6[4:1]/4p5[4:1],2,3/4,,,,5/7,,3,2/4,
1/5,,7,6/8,1/5,,3,2/4,1^4[8:1]/5^8[8:1],,1p5[8:1],,,,4b,,
5/6,5/6,3/4,3/4,{16}5,4,5,4,6,3,7,,,,
1b/8b,,,,3b/6b,,3b/6b,,,,,,,,

4/7,,6,5,7,,3,,2/5,,3,4,2,,6,,
4/5,,2,1,2,,8,,7^4[8:1]/1,,,1,1,,2,,
3/5,,7,8,7,,1,,2^5[8:1]/8,,,8,8,,7,,
{4}1bpp3[8:1]/8bqq6[8:1],1b/8b,2b/7b,{16}4/5,,3,,
2/5,,3,4,2,,6,,4/7,,6,5,7,,4,,3/5,,7,8,{8}7^2[8:1],3,3h[4:1],,5-8[8:1],5,
4h[4:1],,6-1[8:1],6,3-8[8:1],3,5,5,3/6,{16},7,{8}7,8,5,1b,1b,,

2^4[8:1],,5,6,7^5[8:1],,4,3,
{16}1^4[8:1],,,1,8,,8,,1-4[8:1],,,1,7,,7,,
3h[4:1]/6h[4:1],,,,,,4/5,,3,,,6,
{8}6-2[8:1],1,3-7[8:1],,6,,1b/8b,,
7-3[8:1]/3,2,1,,2-6[8:1]/6,7,8,,
7-3[8:1]/3,2,1,,2-6[8:1]/6,7,8,,
2/7,,1/8,,2/7,2/7,{16}6,3,6,3,5,4,5,,
{4}3q8[4:1]/6p1[4:1],,,

{16}6,3,7,2,
8h[4:1],,3,4,5,,1h[4:1],,6,5,4,,
7h[4:1],,2,3,4,,6h[4:1],,3,2,1,,
7,2,6,3,
5h[4:1],,2,1,8,,4h[4:1],,7,8,1,,6h[4:1],,3,2,1,,
7/8,,5/6,,3/4,,1/2,,2/7,,
8h[4:1]/1b,,3,4,5,,1h[4:1]/8b,,6,5,4,,7h[4:1]/1b,,3,4,5,,
3/8,,4/7,,1/6,,2/5,,3/8,,4/7,,1/6,,
4,5,4,5,3,5,3,5,2,4,2,4,1,4,1,4,
{8},1b/8b,,2b/7b,2b/7b,,,,

5/7,5/7,,,2/4,2/4,,,2/6,2/6,,3/5,3/5,,2/6,,
3/7,3/7,,,2/7,2/7,1pp3[8:1]/8qq6[8:1],,1b/8b,,2b/7b,,2b/7b,3/6,4/5,,
1/6,1/6,,,3/8,3/8,,,1/5,1/5,,,4/8,4/8,,,
8,8,1/7,1/7,2/6,2/6,3/5,3/5,4b,,,,
{32}5-1[8:1],6,7,8,1,2,3,4,{4},

{16}
4/7,,6,5,7,,1/8,,2/5,,3,4,2,,1/8,,
2/7,,6,5,6,,4,,3^8[8:1]/5,,,5,5,,6,,
{4}
1-4[8:1]/5-8[8:1],1/5,3-6[8:1]/7-2[8:1],3/7,
3b-8[8:1]/7b-4[8:1],3b/7b,2b/6b,{16}5/6,,4,,
2/5,,3,4,2,,1/8,,4/7,,6,5,7,,1/8,,
3/5,,3,4,{8}3^6[8:1],7,7h[4:1],,
1-4[8:1],1,8-5[8:1],8,2-5[8:1],2,7-4[8:1],7,
3V15[4:1],3,6h[8:3],,,3,2/7,1b,1b,,

6^8[8:1],,5,4,3^1[8:1],,4,6,
1-5[8:1],{16},1,8,,8,,5-1[8:1],,,5,{8}6,7,
2h[4:1]/7h[4:1],,,4/5,3,{16},6,{8}6-1[8:1],4,
3-8[8:1],,6,,2b/7b,,

7-4[8:1]/3,2,1,,2-5[8:1]/6,7,8,,
3-8[8:1]/7,6,5,,6-1[8:1]/2,3,4,,
3/6,2/7,1/8,,2/7,2/7,
{16}8,1,7,2,6,3,5,,
{4}3q8[4:1]/6p1[4:1],,,
{8}2/7,2/7,3b/6b,3b/6b,{4},,1b,

{16}
4/7,,6,5,7,,3,,2/5,,3,4,2,,6,,
4/7,,6,5,8,,3,4,1,,6,5,8,,3/6,,
2/5,,3,4,2,,6,,4/7,,6,5,7,,2,,
{4}1-3[8:1]*-4[8:1],1-5[8:1]*-6[8:1],,2/7,
{16}
3/8,,2,1,3,,7,,1/6,,7,8,6,,2,,
3/8,,2,1,4,,7,8,5,,2,1,4,,2/7,,
1/6,,7,8,6,,2,,3/8,,2,1,3,,6,,
{4}5-7[8:1]*-8[8:1],5-2[8:1],{8},1b,1b,,

4-7[8:1]/2,,3,3,2,1^4[4:1],,4^7[4:1],,7^2[4:1],,4,5,6,3/7,,
5-2[8:1]/7,,6,6,7,8^5[4:1],,5^2[4:1],,2^7[4:1],,5,4,3,2/6,,
{2}
3-8[8:1]/2h[4:1],6-1[8:1]/7h[4:1],4w8[8:1],5w1[8:1],
{8}
1/8,1/8,2/7,2/7,3/6,3/6,4/5,5^8[8:1]/4,,5,
{24}1,2,3,4,,,8,7,6,5,,,,,,
{1}2h[8:14]/7h[24:52],,{24}3,4,5,6,,,,,,
{1},,,E


  • 修正箇所等ありましたら修正・加筆をおねがいします。 -- Sea (2018-08-07 21:12:45)
名前:
コメント:

タグ:

+ タグ編集
  • タグ:

このサイトはreCAPTCHAによって保護されており、Googleの プライバシーポリシー利用規約 が適用されます。

最終更新:2022年07月10日 14:23