彗星ハネムーン

アーティスト ナユタン星人

BPM EASY BASIC ADVANCED EXPERT MASTER Re:MASTER
145 2 4 6 10 12 -

EXPERT MASTER Re:MASTER
譜面制作者 某S氏 はっぴー -

EASY


BASIC

(145.0){1},,
{2}1,1,
{2}2,2,
{2}3,3,
{2}4,4,
{2}5,5,
{1}5h[2:1]/6h[2:1],
{2}4,4,
{1}3h[2:1]/4h[2:1],
{2}5,5,
{4}5,4,5,,
{2}6,6,
{1}7h[2:1]/8h[2:1],
{4}8,8,8,,
{4}7,7,7,,
{4}6,6,6,,
{1}4h[2:1]/5h[2:1],
{4}4,4,4,,
{4}3,3,3,,
{4}2,2,2,,
{1}1h[2:1]/8h[2:1],
{4}1,1,1,,
{4}2,2,2,,
{4}3,3,3,,
{1}4h[2:1]/5h[2:1],
{1}4h[2:1]/6h[2:1],
{1}3h[2:1]/5h[2:1],
{2}4/5,4/5,
{4}4/5,4/5,3/6,,
{4}6,5,6,,
{4}3,4,3,,
{4}6,5,6,,
{4}3,4,3,,
{4}5,5,4/5,,
{4}6,6,5/6,,
{4}7,7,7/8,,
{4}8,8,1/8,,
{4}1,1,1/8,,
{4}2,2,1/2,,
{4}3,3,3/4,,
{2}4/5,4/5,
{1}3b/6b,
{4}4,5,4,,
{4}6,6,6,,
{4}7,7,7/8,,
{1}1b/8b,
{4}1,8,1,,
{4}2,2,2,,
{1}3/4,
{1}4-1[4:3],,
{1}5-8[4:3],,
{4}4,4,4,,
{4}3,3,3,,
{4}2,2,2,,
{4}1/8,1/8,2b/7b,,
{4}8,8,7,7,
{4}6,6,5/6,,
{4}4,4,5,5,
{4}4/5,4/5,3/6,,
{4}4,4,3,3,
{4}2,2,1/2,,
{1}8h[2:1],
{1}1b,
{4}1,1,2,2,
{4}3,3,3/4,,
{4}5,5,4,4,
{4}4/5,4/5,3/6,,
{1}4h[2:1]/6h[2:1],
{1}3h[2:1]/5h[2:1],
{4}4,4,5,5,
{4}4/5,4/5,3/6,,
{4}3,4,3,,
{4}6,5,6,,
{4}3,4,3,,
{4}6,5,6,,
{4}7,7,7,,
{4}8,8,8,,
{4}1,1,1,,
{4}2,2,2,,
{2}1/2,1/2,
{2}7/8,7/8,
{2}2/8,2/8,
{2}1/7,1/7,
{4}1,1,2,2,
{4}3,3,4,4,
{4}5,5,4b/6b,
E

ADVANCED

(145.0){4}6,5,3,4,
{4}5,4,5,3b/6b,
{4}3,4,2/5,,
{4}6,5,4/7,,
{4}7,8,2,1,
{2}1h[4:1]/8h[4:1],2/7,
{4}6h[2:1],5,5,,
{4}3h[2:1],4,4,,
{4}6,6,5/7,,
{4}3,3,2/4,,
{4}7h[2:1],8,8,,
{4}2h[2:1],1,1,,
{4}8h[2:1],1,1,,
{1}2b/7b,
{4}3,3,2/4,2/4,
{4}6,6,5/7,5/7,
{4}8,7,6,5,
{4}4,3,1/2,,
{4}7,7,6/8,6/8,
{4}2,2,1/3,1/3,
{4}3,4,5,6,
{4}7,8,1/2,,
{4}6,6,5/7,5/7,
{4}3,3,2/4,2/4,
{4}5/6,5/6,3/4,3/4,
{4}5/6,3/4,1/2,,
{1}7-4[8:3]/8-3[8:3],
{1}1-6[8:3]/2-5[8:3],
{1}4-1[8:3]/5-8[8:3],
{4}1/8,1/8,2b/7b,,
{4}1/7,1/7,2/8,2/8,
{4}1/7,1/7,2/8,,
{4}7/8,7/8,1/2,1/2,
{4}7/8,7/8,1/2,,
{4}6h[2:1],5,5,,
{4}3h[2:1],4,4,,
{4}6,6,5/7,,
{4}3,3,2/4,,
{4}7h[2:1],8,8,,
{4}2h[2:1],1,1,,
{4}7,8,2,1,
{1}1-4[8:3]/8-5[8:3],
{1}3b/4b,
{4}2,1,8,7,
{4}6,5/6,3,3/4,
{4}6,5/6,4/7,,
{1}5b/6b,
{1}3^8[2:1]/4^7[2:1],
{4}7,8,2,1,
{1}1b/8b,
{2}6h[2:3],5,
{2}5,5,
{2}3h[2:3],4,
{2}4,4,
{4}5,5,4,4,
{4}3,3,2,2,
{4}1,8,7,6,
{4}4/5,4/5,3b/6b,,
{4}3,2/4,3,2/4,
{4}6,5/7,6,5/7,
{4}8,7,6,5,
{4}4,3,1/2,,
{4}7,6/8,7,6/8,
{4}2,1/3,2,1/3,
{4}4,5,6,7,
{4}8h[4:1],1,1/8,,
{4}3,2/4,3,2/4,
{4}6,5/7,6,5/7,
{4}3/4,3/4,5/6,5/6,
{4}3/4,5/6,7/8,,
{1}7-4[8:3]/8-3[8:3],
{1}1-6[8:3]/2-5[8:3],
{1}4-1[8:3]/5-8[8:3],
{4}1/8,1/8,2b/7b,,
{4}2/8,2/8,1/7,1/7,
{4}2/8,2/8,1/7,,
{4}1/2,1/2,7/8,7/8,
{4}1/2,1/2,7/8,,
{4}3/5,3/5,4/6,4/6,
{4}3/5,3/5,4/6,,
{4}3/4,3/4,5/6,5/6,
{4}4/5,4/5,3b/6b,,
{2}2h[2:1],1h[2:1],
{2}8h[2:1],7,
{2}6h[2:1],5h[2:1],
{4}4h[2:1],,3,4b/5b,
{4}6,5,4,3,
{4}3/4,3/4,5/6,5/6,
{4}4/5,4/5,3b/6b,
E

EXPERT

(145.0){4}4,4,5,5,
{4}4/5,4/5,4/5,3b/7b,
{4}3h[4:1],4h[4:1],5h[4:1],6,
{4}6h[4:1],5h[4:1],4h[4:1],3,
{4}3h[4:1],4,6h[4:1],5,
{4}2h[4:1],1h[4:1],8h[4:1],7,
{4}7,5/7,2,2/4,
{2}7-4[8:1],2-5[8:1],
{4}6,4/6,3,3/5,
{2}1-5[8:1],8-4[8:1],
{4}2,2/8,7,1/7p4[2:1],
{4},,,1/8,
{4}1h[4:1],2h[4:1],3h[4:1],4h[4:1],
{1}5b,
{2}4-1[8:1]/6-1[8:1],4-1[8:1]/6-1[8:1],
{2}3-8[8:1]/5-8[8:1],3-8[8:1]/5-8[8:1],
{4}5/6,1/8,3/4,1/8,
{8}7h[4:1],,8,,2,1/2,1/2,,
{4}2-5[8:1],8,8-4[8:1],1,
{4}1-5[8:1],7,7-4[8:1],2,
{4}2h[4:1],4h[4:1],5h[4:1],6<3[2:1],
{8},,,,,1,1,,
{4}2^5[8:1],8,7^4[8:1],1,
{4}1,1/8,1-5[8:1]/8-4[8:1],,
{4}7/8,4/5,1/2,4/5,
{8}7h[4:1],,8,,2,1/2,1/2,,
{4}2^5[4:1]/5^8[4:1],,,4/7,
{4}4^1[4:1]/7^4[4:1],,,2/5,
{2}2h[4:1]/5h[4:1],4h[4:1]/7h[4:1],
{4}2/4,5/7,4/5,2b/7b,
{4}3h[4:1],4h[4:1],5h[4:1],7,
{4}6h[4:1],5h[4:1],4h[4:1],2,
{4}3h[4:1],4,6h[4:1],5,
{8}2h[4:1],,1,,7,7/8,7/8,,
{4}2h[4:1],3,7h[4:1],6,
{8}4h[4:1],,3,,5,4,5,,
{4}5/6,3/4,6h[4:1],7,
{8}3/4,,5/6,,3,1/2,1/2,,
{4}2,1/3,7,6/8,
{8}3,,2/4,,6,5,6,,
{4}7/8,1/2,3/4,5/6,
{8}4/7,,2/5,,4,5,4,,
{1}1h[1:1]/6h[1:1],
{4},,3/8,1/6,
{4}8,5/6,1,3/4,
{2}1-5[8:1]/2-5[8:1],7-4[8:1]/8-4[8:1],
{1}1h[1:1]/6h[1:1],
{4},,3/8,1/6,
{4}7h[4:1],5h[4:1],4h[4:1],2,
{1}1b/8b,
{1}1>8[4:3],
{2},1/8,
{1}8<1[4:3],
{4},,1/8,2/7,
{8}3/4,,5/6,,7,8,7,,
{8}5/6,,3/4,,2,1,2,,
{4}3/5,4/6,2/5,4/7,
{4}1/3,4/8,5/7,6b,
{2}5^2[8:1]/6p1[8:1],5^2[8:1]/6p1[8:1],
{2}3q8[8:1]/4^7[8:1],3q8[8:1]/4^7[8:1],
{8}1/2,,7/8,,4,5,4,,
{8}7h[4:1],,8,,2,1/2,1/2,,
{4}2-5[8:1],1,2-5[8:1],1,
{4}7-4[8:1],8,7-4[8:1],8,
{8}2,1,2,,7,8,7,,
{8}2h[4:3],,,,,1,1,,
{4}3-8[8:1],5,5-1[8:1],4,
{4}4-8[8:1],6,6-1[8:1],3,
{8}3,4,3,,6,5,6,,
{8}3h[4:1],,1,,6,7/8,7/8,,
{4}4^1[4:1]/7^4[4:1],,,2/5,
{4}2^5[4:1]/5^8[4:1],,,4/7,
{2}4h[4:1]/7h[4:1],2h[4:1]/5h[4:1],
{4}5/7,2/4,4/5,2b/7b,
{4}3/8,1/6,3/8,1/6,
{4}4/7,2/5,4/7,2/5,
{4}3/8,1/6,3/8,1/6,
{8}4/7,,5/2h[2:1],,,1,1,,
{4}4/7,2/5,4/7,2/5,
{4}3/8,1/6,3/8,1/6,
{4}4/7,2/5,3/8,1/6,
{8}4/7,,5/2h[2:1],,,1,1,,
{2}1h[8:3]/5h[8:3],3h[8:3]/7h[8:3],
{2}2h[8:3]/6h[8:3],4h[8:3]/8h[8:3],
{8}1/5,,3,4,2/5,,6,5,
{8}4/7,,4,5,3/6,,3b/7b,,
{4}5h[4:1],1,4h[4:1],8,
{4}1/3,6/8,2/5,4/7,
{4}1/5,4/8,1/6,
E

MASTER

(145){8}4h[4:3]/5,,5,,5,,5,,
4/5,4/5,3/6,3/6,3/6,,3b/7b,,
{16}
4h[16:3],,,2h[16:3],,,1,,8h[16:3],,,6h[16:3],,,5,,
5h[16:3],,,7h[16:3],,,8,,1/2,,3/4,,3/4,,,,
5h[16:3],,,7h[16:3],,,8,,1h[16:3],,,3h[16:3],{8},4,
5,6,4,3,2/7,,

6^1[8:1]/3,3,4,,3^8[8:1]/6,6,5,,
7-4[8:1]/8-3[8:1],,,,1-6[8:1]/2-5[8:1],,,,
3^8[8:1]/6,6,5,,6^1[8:1]/3,3,4,,
3-6[8:1]/5-8[8:1],,,,6-3[8:1]/4-1[8:1],,,,
6^1[8:1]/3,3,4,,3^8[8:1]/6,6,5,,
4-1[8:1]/5,,6pp1[8:3],,4,,4,,
3-6[8:1]/6,6,5,,7-2[8:1]/2,2,1,,
4/5,,2/7,,,,,,4/5,,

7^4[8:1]/1,7,3^8[8:1],3,6-3[8:1],6h[4:1],,,
2/4,3,5/7,6,1^4[8:1]/5^8[8:1],,,,
3^6[8:1]/7,7,8,8,6^3[8:1]/2,2,1,1,
1/5,2-7[8:1]/6-3[8:1],,,,1/2,1/2,,
6^1[8:1]/4,6,2^5[8:1],2, 6-3[8:1],6h[4:1],,,
2/4,3,5/7,6,1^4[8:1]/5^8[8:1],,,,
5-1[8:1]/7,7,6,6,4-8[8:1]/2,2,3,3,
4^1[8:1]/5^8[8:1],,,,,1/2,1/2,,
3-8[8:1]/7-4[8:1],3/7,,,1/5,1/5,2/6,,

5/7,6,2/4,3,4v1[8:1]/8v5[8:1],,,,
2^7[8:1]/6,6,5,5,7^2[8:1]/3,3,4,4,
2^7[4:1]/6q3[4:1],,,,,1/2,
1<5[4:1]/2,,5>1[4:1],,1,,,,
8<4[4:1]/7,,4>8[4:1],,8,,,,
4/5,,1h[4:3]/8,,,,5h[4:1],,,,
7/8,,3-8[8:1]/4-8[8:1],,,,8b,,

3/6,{16},4,{8}5>7[2:1],4,,,4,,4,,3,,3/4,3/4,2/5,,
3/6,{16},5,{8}4^1[4:1],5,,,7,1/8,2/7,3/6,4/5,4/5,6,7/8,7/8,,

2-7[8:1],2,6-3[8:1],6,1,1h[4:1],,2,
3-6[8:1],3,2-7[8:1],2,6,6,4/5,,
7-2[8:1],7,3-6[8:1],3,8,8h[4:1],,7,
6-3[8:1],6,8,8,2,1/2,1/2,,
7-3[8:1],7,4-1[8:1],4,8,8h[4:1],,7,
6-2[8:1],6,5-8[8:1],5,4,4,4/5,3,
2^7[8:1]/6,6,5,5,7^2[8:1]/3,3,4,4,
3/6,{16}4,5,{8}4,3/6,3/6,5,3,2,
{1}1h[8:7]/6h[8:7],

{8}
3/7,2/6,3/7,2/6,3/7,1b/8b,1b/8b,,
1^6[8:1]/2^5[8:1],,,,
7^4[8:1]/8^3[8:1],,,,
1/8,1/8,3/6,,4/5,4/5,3/6,2,
{1}1h[8:7]/6h[8:7],
{12}6,5,6,3,4,3,{8}5,5,4/6,3,
2-5[8:1],,7-4[8:1],,1-5[8:1],,8,8,
2/7,,,,,,4/5,,
{1}1h[8:27]/6h[8:27],,,
{8},,,,5,4,3/5h[1:3],,
6,6,6,6,6-3[8:1],6,,,6,6,6,6,6,6,
{4}6,6,6,6,6,3/8,4/7,{8}6-1[8:1]/5,3,4b,,

8^5[8:1]/2,8,4^1[8:1],4,6-3[8:1],6h[4:1],,,
1/4,2,5/8,7,2-5[8:1]/6-1[8:1],,,,
5p8[8:1]/6,6,7,7,4q1[8:1]/3,3,2,2,
3/7,3-6[8:1]/7-2[8:1],,,,1/2,1/2,,
5^8[8:1]/3,5,1^4[8:1],1,6-3[8:1],6h[4:1],,,5/8,7,1/4,2,8^5[8:1],,4,
{16},1,1^4[8:1],,,,5,,,8,{8}8^5[8:1],,4,,,8b,8b,8b,,1/2,1/2,,

4-1[8:1]/6,6,7,6,5-8[8:1]/3,3,2,3,
4-8[8:1]/6,6,7,6,5-1[8:1]/3,3,2,3,
4^1[8:1]/6,5,7,6,5^8[8:1]/3,4,2,3,
4-8[8:1]/6,5,7,6,5,7/8,
8>4[4:1]/7,,4<8[4:1],,8,,,,
1>5[4:1]/2,,5<1[4:1],,1,,,,
4/5,,8h[4:3]/1,,,,4h[4:1],,,,
1/2,,5-1[8:1]/6-1[8:1],,,,1b,,

3/6,{16},5,{8}4<2[2:1],5,,,5,,5,,6,,5/6,5/6,4/7,,
4/5,{16},4,{8}5^8[4:1],4,,,2,1/8,2/7,3/6,4/5,,3,1/2,1/2,,
{2}
2v5[8:1]/7-2[8:1],1-3[8:1]/8-6[8:1],1^3[8:1]/8^6[8:1],
5-2[8:1]/7,3^8[8:1]/8^5[8:1],1^4[8:1]/6^1[8:1],
{8}4/5,4/5,4/5,4/5,3,1/2,1/2,,

{2}
3h[8:3]/8h[8:3],1h[8:3]/6h[8:3],
3h[8:3]/8h[8:3],1h[8:3]/6h[8:3],
{16}
3/8,,,,5,4,5,,1/6,,,,4,5,4,,
3/8,,,,5,4,{8}5,1/6,,3b/7b,,

1/6,2,3/8,7,1/6,2,3/8,7,
{4}1b/6b,3b/8b,1b/6b,3b/8b,1b/6b,3b/8b,
{1}1b/6b,,,E


Re:MASTER


  • 修正箇所等ありましたら修正・加筆をおねがいします。 -- Sea (2018-08-19 08:20:00)
  • {16}6,5,6,,3,4,{8}3,→{12}6,5,6,3,4,3,{8} -- 名無しさん (2018-08-21 15:21:05)
名前:
コメント:

タグ:

+ タグ編集
  • タグ:

このサイトはreCAPTCHAによって保護されており、Googleの プライバシーポリシー利用規約 が適用されます。

最終更新:2022年07月09日 21:28