|
EXPERT |
MASTER |
Re:MASTER |
譜面制作者 |
rioN |
Jack |
- |
EASY
BASIC
ADVANCED
EXPERT
MASTER
(150){0.5}
2-6[4:5]/7-3[4:5],
{8}14,,,58,,,,,
2,2,7,7,{16}1,8,1,8,{32}1,2,3,4,5,6,7,8,
{16}1h[16:3],,,2h[16:3],,,3,,7h[16:3],,,6h[16:3],,,5,,
2h[16:3],,,3h[16:3],,,4,,8,,6,,4,,2,,
8h[16:3],,,7h[16:3],,,6,,2h[16:3],,,3h[16:3],,,4,,
7h[16:3],,,6h[16:3],,,5,,1,,3,,5,,7,,
1b,,28,,3,,24,,5,,2,1,,,28,,
5,,2,1,,,24,,8,,26,,4,,26,,
8,,17,,6,,57,,4,,7,8,,,17,,
2-6[8:1],,2,,7-3[8:1],,7,,2,,2,,7,2,7,2,
8b,,17,,6,,57,,4,,7,8,,,17,,
4,,7,8,,,57,,1,,37,,5,,37,,
1b,,28,,3,,24,,5b,,2,1,,,28,,
7b-3[8:1],,7,,2b-6[8:1],,2,,8b,,8,,1b,,37,,
5h[8:1],,3,5h[8:1],,7,5h[4:1],,,,1,,26,,37,,
4h[8:1]/8,,6,4h[8:1],,2,4h[4:1],,,,8,,37,,26,,
1h[8:1]/5,,7,1h[8:1],,3,1h[4:1],,,,5,,26,,37,,
4/8h[4:1],,6,,1h[4:1],,3,,5h[4:1],,7,,4h[4:1],,2,,
8h[8:1],,2,8h[8:1],,6,8h[4:1],,,,4,,37,,26,,
1h[8:1]/5,,7,1h[8:1],,3,1h[4:1],,,,5,,26,,37,,
4h[8:1]/8,,6,4h[8:1],,2,4h[4:1],,,,8,,37,,26,,
1/5h[4:1],,7,,4h[4:1],,2,,8h[4:1],,6,,1h[4:1],,3,,
{1}8b,{16}1-5[16:1]/8-4[16:1],,,18,,,{8}2b/7b,,15,7-3[8:9],4,
2,8,6,4,2,8,6,4,
2-6[16:1],8,6b,,5-1[8:1]/7-3[8:1],,57,,
{16}12,,7,8,,,24,,57,,2,1,,,57,,
3h[4:1],,4,,8h[4:1],,1,,5h[4:1],,6,,8h[4:1],,1,,
3h[8:1],,4,3,,,17,,6h[8:1],,5,6,,,28,,
3h[4:1],,2,,4h[4:1],,5,,3h[4:1],,1,,4h[4:1],,6,,
3h[8:1],,4,3,,,25,,7h[4:1],,8,,1h[4:1],,2,,
3h[4:1],,4,,5h[4:1],,6,,7h[4:1],,8,,1-5[8:1],,2,,
3,,4,,5,,6,,7h[4:1],,8,,2h[4:1],,1,,
5h[8:1],,4,5,,,27,,,,12,,34,,56,,
78,,2,1,,,57,,24,,7,8,,,24,,
6h[4:1],,5,,1h[4:1],,8,,4h[4:1],,3,,1h[4:1],,8,,
6h[8:1],,5,6,,,{8}2/8^5[8:1],,4,3,2,
1b-5[16:1],5,7b-3[16:1],3,2b-6[16:1],6,8b-4[16:1],4,
{0.5}1b>8[2:3],{2}5h[2:3],,,3h[2:1],7h[1:2],,,{8}1,1,1,1,
{32}1,2,3,4,5,6,7,8,1,2,3,4,5,6,7,8,1,2,3,4,5,6,7,8,1,2,3,4,5,6,7,8,
1,2,3,4,5,6,7,8,1,2,3,4,5,6,7,8,1,2,3,4,5,6,7,8,1,2,3,4,5,6,7,8,
{16}1h[16:3],,,2h[16:3],,,3,,7,,68,,2,,13,,
45,,2,4,3qq5[8:3],,7,7h[16:9],,,,,,,,,
5,7,1,7,5,7,1,7,5,7,2,7,5,7,2,7,
5,7,3,7,5,7,3,7,5h[4:1],,,,4,,,,
3,4,2,5,4,7,5,6,4h[8:1],,5,4,5,,27,,
1,5,1,5,2,6,2,6,3,7,3,7,4,8,4,8,
5h[8:3],,,,,,4,5,{8}4,78,45,12,
8,6pp4[8:3],4,2h[8:3],,,,,
7h[8:3],2,4,6h[2:1],,1,3,5h[2:1],
8,2,,4h[2:1],,7,1,3h[2:1],
6,8,,2h[2:1],,5,7,1h[8:7],
4,6,,8h[8:3],,,,,
{16}8h[16:3],,,7h[16:3],,,6,,12,,34,,56,,78,,
1,5,2,6,3,7,4,8,3,7,2,6,1,5,8,4,
{0.5}3h[4:7]/7h[4:7],
{16}5h[16:3],,,6h[16:3],,,7h[4:1],,,,8,,18,,12,,
4h[16:3],,,3h[16:3],,,2h[4:1],,,,1,,18,,78,,
5h[16:3],,,7h[16:3],,,1h[4:1],,,,2,,18,,78,,
4h[16:3],,,2h[16:3],,,8h[4:1],,,,7,,18,,12,,
5h[16:3],,,4,5,,36,,2h[16:3],,,1,2,,38,,
7h[16:3],,,8,7,,16,,45,,36,,27,,18,,
1h[8:1]/7h[8:1],,,5h[8:1]/7h[8:1],,,37,,2h[8:1]/8h[8:1],,,2h[8:1]/4h[8:1],,,26,,
3h[8:1]/4h[8:1],,,5h[8:1]/6h[8:1],,,12,,3h[8:1]/4h[8:1],,,7b/8b,,,,,
2h[8:1]/8h[8:1],,,2h[8:1]/4h[8:1],,,26,,1h[8:1]/7h[8:1],,,5h[8:1]/7h[8:1],,,37,,
2h[8:1]/5h[8:1],,,4h[8:1]/7h[8:1],,,25,,3h[8:1]/4h[8:1],,,5h[8:1]/6h[8:1],,,1b-6[16:1]/2b-5[16:1],,
{1},E
Re:MASTER
最終更新:2018年08月25日 16:00