Kinda Way

BPM EASY BASIC ADVANCED EXPERT MASTER Re:MASTER
127 3 4 7+ 10+ 12+ -

EXPERT MASTER Re:MASTER
譜面制作者 はっぴー すきやき奉行 -

EASY


BASIC


ADVANCED

(127){1}1s5[2:1]/8,{4}
6,6,5,5,4,3,2/5,,5,6,4/7,8,1,8,1/8,,
3,3,4,4,5,6,4/7,,4,3,2/5,1,8,1,2b/7b,,
{8}
3,3,4,,6,6,5,,7/8,,1/2,,3/8,,,,
6,6,5,,3,3,4,,1/2,,7/8,,1/6,,,,
3,3,3/4,,2h[4:1]/5h[4:1],,,,
6,6,5/6,,4h[4:1]/7h[4:1],,,,
2,2,1,,7,7,8,,{4}1/8,2/7,3/6,,
{1}5^2[2:1]/6,4^7[2:1]/3,5-1[2:1]/4,{4}7/8,5/6,3/4,1/2,
{1}8^3[2:1]/7,1^6[2:1]/2,8-4[2:1]/7,{4}3/4,2/5,1/6,7b/8b,
{8}6,5,4/7,,3,4,{4}2/5,3/4,5/6,2/4,,7h[4:1],8h[4:1],1h[4:1],2,3/4,5/6,4/7,,
{8}3,4,2/5,,6,5,{4}4/7,5/6,3/4,4/7,,
{1}7-4[8:3]/8-3[8:3],1-6[8:3]/2-5[8:3],
{4}3/4,5/7,3/4,5/7,4/6,3/5,2/4,,5/6,7/8,{8}1,1,2/8,,3/4,,1/2,,8,8,1/7,,
{4}5/6,2/4,5/6,2/4,3/5,4/6,5/7,,5/6,3/4,{8}2,2,1/3,,7/8,,5/6,,4/5,4/5,3/6,,
{1}1^6[2:1]/2,8^3[2:1]/7,1-5[2:1]/2,{4}3/4,1/2,7/8,5/6,
{1}4^7[2:1]/3,5^2[2:1]/6,4-8[2:1]/3,{4}7/8,1/6,2/5,3b/4b,
{8}2,1,3/8,,7,8,{4}1/6,7/8,1/2,6/8,,3h[4:1],4h[4:1],5h[4:1],6,7/8,1/2,3/8,,
{8}7,8,1/6,,2,1,{4}3/8,1/2,7/8,1/3,,
{1}3-8[8:3]/4-7[8:3],5-2[8:3]/6-1[8:3],
{8}3/4,3/4,2/5,,5/6,5/6,{4}4/7,2/4,5/7,1/5,,2h[4:1],4h[4:1],5h[4:1],7,6/8,4/7,1/3,,
{8}5/6,5/6,4/7,,3/4,3/4,{4}2/5,5/7,2/4,4/8,,
{1}1^6[8:3]/2^5[8:3],7^4[8:3]/8^3[8:3],
{8}4,4,5,5,4,5,3/6,,{16}1/8,,,1/8,,,
{1}2/7,,,,E


EXPERT

(127){4}7-3[4:1],,2h[4:1],1b,
{8}
3,,2/4,,5,4,3/5,,6,,5/7,,4,5,4/6,,
3,,2/4,,5,4,3/5,,6,,5/7,,1/8,,2/7,,
6,,5/7,,4,5,4/6,,3,,2/4,,8,1,2/7,,
4/5,,3/6,,2/7,,1^4[4:1]/8^5[4:1],,,,,,
1b/8b,,,,
5,6,4,3,5,6,4h[4:1],,3,,8,,5,5,1,,
4,3,5,6,4,3,5h[4:1],,6,,1,,4,4,8,,
5,6,4,3,7h[4:1],,5,,
4,3,5,6,2h[4:1],,4,,
5,6,4,3,{4}7h[4:1],5h[4:1],4h[4:1],2h[4:1],7,4/5,
4/6^1[8:1],,3,2/4,5/3^8[8:1],,6,5/7,4/6^1[8:1],,3,2/4,7h[2:1],6,2h[4:1],3,
{8}
5/3^8[8:1],,,,6,6,5/7,,
4/6^1[8:1],,,,3,3,2/4,,
5/3^8[8:1],,,,6,6,5/7,,3,3,2/4,,4/5,,2/7,,
8,8,1,1,2-5[8:1]/8-4[8:1],,,,3/7,3/7,2-5[8:1]/6-1[8:1],,,,4/8,,
1,1,8,8,1-5[8:1]/7-4[8:1],,,,3/7,3/7,2-5[8:1]/6-1[8:1],,,,4/8,,
5,5,4,4,3-6[8:1]/7-2[8:1],,,,8,8,1,1,2-7[8:1]/6-3[8:1],,,,1b/5b,,,,
{16}4h[8:1]/8h[8:1],,,3h[8:1]/7h[8:1],,,2/6,,{2}2-8[8:1]/6-4[8:1],3b/7b,
{8}
2,1,8h[2:1],,5,5,4,,7,8,1h[2:1],,4,4,5,,
7h[4:1],,5h[4:1],,4h[4:1],,2,2,2h[4:1],,4h[4:1],,5h[4:1],,7,,
3,4,5h[2:1],,8,8,1,,6,5,4h[2:1],,1,1,8,,
6h[4:1],,8h[4:1],,1h[4:1],,3,3,3h[4:1],,1h[4:1],,8h[4:1],,6,,
5/3^8[8:1],,,,6,6,5/7,,4/6^1[8:1],,,,3,3,2/4,,
5/3^8[8:1],,,,6,6,5/7,,2h[2:1],,3,,7h[4:1],,6,,
4/7^2[8:1],,,,3,2,1/4,,5/2^7[8:1],,,,6,7,5/8,,
4/7^2[8:1],,,,3,2,1/4,,6,7,5/8,,4/5,,2/7,,
7,8,1,2,1-5[8:1]/7-4[8:1],,,,2/6,2/6,3-8[8:1]/7-4[8:1],,,,1/5,,
2,1,8,7,2-5[8:1]/8-4[8:1],,,,2/6,2/6,3-8[8:1]/7-4[8:1],,,,1/5,,
2,3,4,5,2-7[8:1]/6-3[8:1],,,,7,8,1,2,3-6[8:1]/7-2[8:1],,,,4b/8b,,,,
{16}5h[8:1]/1h[8:1],,,6h[8:1]/2h[8:1],,,7/3,,{2}7-1[8:1]/3-5[8:1],6b/2b,
{8}
8,6,4,3,2-6[8:1]/4-7[8:1],,,,4/8,3/7,2^5[8:1]/6^1[8:1],,,,4/8,,
1,3,5,6,7-3[8:1]/5-2[8:1],,,,5/1,6/2,7^4[8:1]/3^8[8:1],,,,5/1,,
7,6,5,4,3^6[8:1]/7^2[8:1],,,,2,1,8,7,6^3[8:1]/2^7[8:1],,,,1b/5b,,,,
{16}4h[8:1]/8h[8:1],,,3h[8:1]/7h[8:1],
{8},2/6,2^8[8:1]/6^4[8:1],,,,3b/7b,,4/5,,1,1,8,8,4,2,5,7,
{16}4/5,,,1/8,,,
{1}2b/7b,,,,E


MASTER


Re:MASTER


名前:
コメント:

タグ:

+ タグ編集
  • タグ:

このサイトはreCAPTCHAによって保護されており、Googleの プライバシーポリシー利用規約 が適用されます。

最終更新:2021年05月10日 20:47