My First Phone

BPM EASY BASIC ADVANCED EXPERT MASTER Re:MASTER
114 2 5 7+ 11 13+ -

EXPERT MASTER Re:MASTER
譜面制作者 Jack 譜面-100号 -

EASY

(114){1},,
5,5,6,6,7,7,8,8,1,1,2,2,3,3,4,4/5,3h[1:1],,4h[1:1],,5h[1:1],,6h[1:1],,
{2}5,5,5,,6,6,6,,7,7,7,,8,8,8,,1,1,1,,2,2,2,,3,3,3,,4,4,4-8[4:3],,,,
{4}7,7,7,,6,6,6,,5,5,5,,4,4,4,,3,3,3,,2,2,2,,1b,,,,
2h[2:1],,,,3,3,3,,4h[2:1],,,,5,5,5,,6h[2:1],,,,7,7,7,,8h[2:1],,,,1,1,1,,
{1}2-6[4:3],,7-3[4:3],,2-6[4:3],,7,{4}8,,1,1b,,,,,,,,,E


BASIC

(114){4},,,,,,,1b,
1,1,1,,2,2,2,,3h[2:1],,,,4h[2:1],,,,5,5,5,,6,6,6,,7h[2:1],,,,8h[2:1],,,,
8,8,8,,7,7,7,,6h[2:1],,,,5h[2:1],,,,4,4,4,,3,3,3,,2h[2:1],,,,1h[2:1],,,,
8,8,1/8,,1,1,1/8,,7,7,7/8,,2,2,1/2,,7,8,7,,2,1,2,,7,7,8,8,1,1,2,2b,
3,3,3/4,,6,6,5/6,,3,3,4,4,5,5,5/6,,7,7,7/8,,2,2,1/2,,7,7,8,8,1,1,1/2,,
2,2,1/2,,7,7,7/8,,2,2,1,1,8,8,7/8,,6,6,5/6,,3,3,3/4,,6,6,5,5,4,4,3/4,,
4b,4,35,,5,5,4/6,,3/4,3/4,1/2,1/2,7/8,7/8,5/6,,
5,5,4/6,,4,4,3/5,,5/6,5/6,7/8,7/8,1/2,1/2,3/4,,
3/4,3/4,2/5,,5/6,5/6,4/7,,3/4,2/3,1/2,1/8,7/8,6/7,5/6,,
5/6,5/6,4/7,,3/4,3/4,2/5,,5/6,6/7,7/8,1/8,1/2,2/3,3/4,,
{1}4-1[4:3],,5-8[4:3],,4-1[4:3],,5-8[4:3],{4},,,1b,,,,,,,,,E


ADVANCED

(114){4}3h[2:1],,,,,,3h[4:1],4b,
7/8,,1/2,2,1/2,,7h[4:1]/8,8,6,,4,5,
4z8[2:1],,,,1/2,,7/8,7h[4:1],
8q4[8:3],,,,5/6,4,3,,3h[4:1],
4,1h[4:1]/2h[4:1],,1/7,8,1/2,1h[2:1]/2,,2,7h[4:1],8,6,,3h[4:1]/4,4,
6s2[2:1],,,,2b,1,6/8,6h[4:1],8,,2,1/2,3/4,5,6,,7/8,1/8,2/7,,
2h[4:1],8,2h[4:1],1,2h[4:1],8p4[4:1],,,
3h[4:1],4,4h[4:1],5,4h[4:1],6,4h[4:1]/6h[4:1],,7,1,7h[4:1],8,
7h[4:1],1,7h[4:1],8,5/6,5,4/5,4,3h[4:1]/4h[4:1],,4/5,3/6,
1/2,8,5/7,,3h[4:1],,2/4,1,1,2,5/7,,7/8,1,2h[4:1]/4h[4:1],,
7/8,1,2/4,,6h[4:1],,5/7,8,8,1,2/4,1,8,7,5/6,,
2/8,7,4/6,,3,3,2h[4:1]/4h[4:1],,1,8,5/7,8,1/2,3,2h[4:1]/4h[4:1],,
8h[4:1]/1,2,3/5,,6,5,4/7,8,1,2,3/4,5w1[2:1],,,,,
3b/8b,7,5/6,4,2/5,3h[4:1]/4h[4:1],,1/8,7,6,3/5,6,7/8,1,2/4,3/4,
1/6,2,3/5,4,5/6,6,4/7,,1/8,2,3/5,1/2,7-4[2:1]/8-3[2:1],,,,
7/8,2,3/4,5/6,4/7,5h[4:1]/6h[4:1],,4/7,2/8,3,4/6,3/5,1/2,8,4/7,1/7,
7h[4:1]/3,8,4/6,3/5,3h[4:1]/1,4,2h[4:1]/5h[4:1],,1/8,7,4/6,5,4/6,3/7,2/8,1,
{1}7V15[2:1],2V84[2:1],5V31[2:1],{4}8,8,7h[4:1],1,
{1}6V48[2:1],3V51[2:1],8V24[2:1],{4}5,5,3h[4:1],4b,,,,,,,,,E


EXPERT

(114){4},,,,,,,1b,
{8}1,,2,,3,,,7,7,,6,,5,4,{4}5,6/7,,4/5,,2/3,,{6}4/5,4/5,4/5,
{8}4/5,,3,,2,,,4,4,,5p4[8:3],6,{2}7,2/3,4/5,6/7,4h[4:1]/5h[4:1],
{8}2,,3,,4,,4/5,6,6,,7^4[8:1],,3h[4:1],,2,,{2}4/5,6/7,4/5,
{6}3h[12:1],4h[12:1],5h[12:1],
{8}6,,5,,4/7,,,3,3,,4,3,{2}2-4[8:1]/5-7[8:1],1/8,2/7,
{12}3/6,,,,,4/5,{16}4/5,,,,3,4,5,6,
{4}4-8[8:1],7-5[8:1],1-3[8:1],8-4[8:1],3-1[8:1],5-7[8:1],8z4[8:1],,
6,7,8,1,2,3>6[4:1],6<3[4:1],,4,5,3^6[8:1]/6^1[8:1],,5,4,3^8[8:1]/6^3[8:1],,
7,6/8,2,3w7[8:1]/1,,6w2[8:1],,4/8,

1^4[8:1]/6,6,{8}1/6,2,3/6,4,{4}5v8[8:1]/6,6,8q5[8:1]/6,6,
4^1[8:1]/7,7,{8}4/7,3,2/7,1,{4}8>6[4:1]/7,7,{16}7,,1,1,{4}2/7,
3^8[8:1]/6,6,{8}6/7,8,1/6,2,{4}3^6[8:1]/6,6,3^6[8:1]/6,6,
6^3[8:1]/7,7,2h[4:1]/7,{8}7,2,{4}1-5[8:1]/7,7,{12}3/7,,2/6,,4/5,4/5,
{8}6^1[8:1]/3,,3,,2/3,1,3/8,7,6^3[8:1]/3,,3,,{24}4,5,6,5,4,3,{4}4,
3^6[8:1]/2,2,7h[4:1]/2,{8}2,7,{4}2/8,2>8[8:3]/1,4h[2:1],,
1,2/8,{8}3,4,4,5,5,,4/6,,7,8,{4}1/7,4h[4:1]/2,5h[4:1],7,4qq1[8:7]/5pp8[8:7],,,,,

2b/7b,4/5,{8}2/7,5,4/6,5,1^6[8:1]/2,,4,,2,6,{16}4,5,{8}4,
2/7,,4/5,,2/7,4,3/5,4,8^3[8:1]/7,,5,,7,{16}4,4,{8}5,2/7,
8^5[8:1]/1,,4,,1/8,6,4/7,5,6-2[8:1]/1,,4,,1/8,6,4/7,,
5^8[8:1]/1,,4,,2/3,2/3,6/7,6/7,1/8,,4/5,,{12}1/8,2,2,1/8,7,7,
{8}
1^4[8:1]/8,,5,,1/8,3,2/5,4,3-7[8:1]/8,,5,,8,2,{16}5,4,{8}5,
8^5[8:1]/1,,4,,1/8,6,4/7,5,{4}1/6,4>5[8:3]/7,,,
6/7,4/5,2h[8:3]/3h[8:3],,2/3,4/5,{24}5,4,3,4,5,6,{8}5,1,
2/7,,3/6,,4-1[8:1]/5-8[8:1],,,,
1h[16:1]/2h[16:1],1/2,7h[16:1]/8h[16:1],7/8,1h[16:1]/8h[16:1],1/8,2qq5[4:3]/7,,
{1}6b,

{8}
6h[4:1],,5,,4,3,2/4,,
3h[4:1],,4,,5,6,5/7,,
6h[4:1],,5h[4:1],,4h[4:1],,3^6[8:3],,,,,,
6h[4:1]/7h[4:1],,,,2h[4:1]/3h[4:1],,,,
6,6,5,7,4,,5,,3,3,4,,
{16}5h[16:3],,,4h[16:3],,,5,,4/5,,,,
{1}8b,,,,E


MASTER

(114){4},,,,,,,1b,
8-4[8:1],2-7[8:1],6-3[8:1],4-8[8:1],2-5[8:1],6-1[8:1],8-4[8:1],,
{8}2h[8:1],6h[8:1],4h[8:1],3,7h[8:1],3h[8:1],5h[8:1],6,2h[8:1],6h[8:1],4h[8:1],3,
{12}7h[12:1],8h[12:1],5h[12:1],4h[12:1],1h[12:1],2h[12:1],
{4}6-2[8:1],4-7[8:1],8-3[8:1],2-6[8:1],4-1[8:1],8-5[8:1],6-2[8:1],,
{8}5h[8:1],7h[8:1],1h[8:1],3,4h[8:1],2h[8:1],8h[8:1],6,5h[8:1],7h[8:1],1h[8:1],3,2/7,,

{24}6,,5,4,,3,
{4}8^2[8:1],7q3[8:1],2p6[8:1],3^6[8:1],1^7[8:1],2p6[8:1],7q3[8:1],,
{8}2h[8:1],4h[4:1],8,1h[8:1],7h[8:1],5h[4:1],1,8h[8:1],2h[8:1],4h[4:1],8,1,
{12}3/7,1/5,3/7,2/6,4/8,2/6,
{4}8-4[8:1],3^8[8:1],7^4[8:1],1s5[8:1],6^1[8:1],2^5[8:1],8-4[8:1],,
{16}7h[16:1],,2h[16:1],,6,5,4,3,8,,1,,2h[4:1]/7,,3,,7h[4:1],,6,,5h[8:1],,4,,{4}3/6,

1^6[8:1],2p5[8:1],3^8[8:1],4p7[8:1],5^2[8:1],6p1[8:1],7s3[8:1],8,
8^3[8:1],7q4[8:1],6^1[8:1],5q2[8:1],4^7[8:1],3q8[8:1],2z6[8:1],1,
5V31[8:1],6v8[8:1],7V53[8:1],8v2[8:1],1V75[8:1],2v4[8:1],3V17[8:1],4v6[8:1],
5p8[8:1],4q1[8:1],6-2[8:1],3-7[8:1],5<4[4:1]*p4[4:1],5,,5/8,1/4,

7p3[8:1]/1,2q6[8:1],8p4[8:1],3,2q6[8:1]/8,7p3[8:1],1q5[8:1],6,
6q2[8:1]/4,3p7[8:1],5q1[8:1],2q6[8:1],7p3[8:1],2,
{16}1s5[8:1]/8z4[8:1],,1/8,1/8,{4},

4-7[8:1],1-6[8:1],4p8[8:1],1p5[8:1],
8-3[8:1],5-2[8:1],8p4[8:1],5p1[8:1],
8q4[8:1],1^3[8:1]*^6[8:1],1p5[8:1],8^3[8:1]*^6[8:1],8q4[8:1],1,
{12}5h[12:1]/7h[12:1],,2h[12:1]/4h[12:1],,5/6,3/4,

{4}
2p5[8:1]/1,1-4[8:1],8-5[8:1],7q4[8:1],8-5[8:1],1-4[8:1],2p5[8:1],7,
6p1[8:1]/3,5-8[8:1],4-1[8:1],3q8[8:1],4-1[8:1],5-8[8:1],6p1[8:1],3,
1V75[8:1]/7,1-3[8:1]/4,1V75[8:1]/7,1/4,
7V13[8:1]/1,7-5[8:1]/4,7V13[8:1]/1,4/7,
2V86[8:1]/8,2-4[8:1]/5,2V86[8:1]/8,2/5,
8V24[8:1]/2,8-6[8:1]/5,8V24[8:1]/2,5w1[8:1]/8,,
6-4[8:1],3-7[8:1],8-2[8:1],3-5[8:1],6-2[8:1],1-7[8:1],2-4[8:1],
5-1[8:1],8-6[8:1],7-5[8:1],4-8[8:1],1-3[8:1],7V58[8:1],3V14[8:1],,
8^5[8:1],3pp5[8:1]/8^2[8:1],8p4[8:1],8,
1^4[8:1],6qq4[8:1]/1^7[8:1],1q5[8:1],1,
7p3[8:1],6^1[8:1],4p5[8:1],3^8[8:1],2q6[8:1],7,
{24}4/8,,3,4,2,,1/5,,6,5,7,,

{4}
8^6[8:1]/4,2p5[8:1],7q4[8:1],1^3[8:1],5^7[8:1],3q8[8:1],6p1[8:1],4^2[8:1],
1q6[8:1],3^5[8:1],2^8[8:1],4p7[8:1],8p3[8:1],6^4[8:1],7^1[8:1],5q2[8:1],
7V51[8:1],4V26[8:1],1V73[8:1],6V48[8:1],3V15[8:1],8V62[8:1],5V37[8:1],2V84[8:1],
7V15[8:1],2V48[8:1],5V73[8:1],8V26[8:1],3V51[8:1],6V84[8:1],1V37[8:1],5-1[8:1],

8^5[1:3],,{8},1,4,,2h[16:1],3h[16:1],
{16}1,2,3,4,2,2,3,3,{8}4,8,,,2,,8,1,{4}7,2q3[4:1],,,
1^4[1:3],,,{8},8,5,,7h[16:1],6h[16:1],
{16}8,7,6,5,7,7,6,6,{8}5,1,,,7,,1,8,2,,{16}7,,,6,,,5,,
{32}4,5,3,6,4,5,3,6,
{1}4b,,,,E


Re:MASTER


  • 黄譜面で1ノーツ目が7拍早く来るため紫譜面の頭に空白を挿入しました。オフセットは-3.68すれば合います。 -- Sea (2018-12-25 20:12:56)
名前:
コメント:

タグ:

+ タグ編集
  • タグ:

このサイトはreCAPTCHAによって保護されており、Googleの プライバシーポリシー利用規約 が適用されます。

最終更新:2021年05月05日 15:37