セイクリッド ルイン

BPM EASY BASIC ADVANCED EXPERT MASTER Re:MASTER
186 3 6 8+ 11 13+ -

EXPERT MASTER Re:MASTER
譜面制作者 LabiLabi Jack -

EASY


BASIC


ADVANCED


EXPERT


MASTER

(186){8}
1/8,1/8,2,3h[4:1],,4,,1-4[8:1]/8-5[8:1],,1/8,,6h[4:1],,5,6,7,
1/8,1/8,,{24}6,5,4,{8}3,,,1/8,,1/8,2,1/8,7,1/8,2,3,
4/5,4/5,6,7h[4:1],,8,,4-1[8:1]/5-8[8:1],,4/5,,2h[4:1],,1,2,3,
4h[8:3]/5,7,7,5h[2:1],,2,2,4h[4:1],,5,4,3,2,1,8,7,

5>1[8:3]/6,7,8,1^6[4:1],,6p2[4:1],,2p6[4:1],,6^3[4:1],,3>6[4:1]*p6[4:1],,,,,
4/5,{16}3,4,{8}3,2h[4:1]/5,,1,8,7h[4:1]/4,,8,1,2V41[4:1]/7V58[4:1],,,,,
2/7,6^1[8:1],5,6,,3^8[8:1],4,3,,6^1[8:1],5,6,,2,3^8[4:1],4,8^5[4:1],,5^2[4:1],,2,,
1,1-6[8:1]*-7[8:1],,1-3[8:1]*-4[8:1],,1-5[8:1],,1b,,,

7h[4:1]/3,,5,5h[4:1],,7-3[8:1],5,7,,3-7[8:1],1,3,,7,8,1,
2h[4:1]/6,,4,4h[4:1],,2-6[8:1],4,2,,6-2[8:1],8,6,,2,1/3,,
5/7,6^3[8:1],8,6,,2q6[8:1],1,2,,7^2[8:1],6,7,,4/5,,{16}8,8,
{8}1/7,,3/4,2/5,,7,8,1pp4[2:1]/6,,5,6,7,8,1,2,3/6,

6h[4:1]/3,,8,8h[4:1],,6-2[8:1],8,6,,2-6[8:1],4,2,,6,5,4,
3h[4:1]/7,,1,1h[4:1],,3-7[8:1],1,3,,6,5-1[8:1]/7,,8-4[8:1]/5,,1/8,,
2/4,3^6[8:1],1,3,,7p3[8:1],8,7,,2^7[8:1],3,2,,4/5,,{16}1,1,
{8}2/8,,5/6,4/7,,2,1,8qq5[2:1]/3,,4,3,2,1,8,2/7,,

4/5,3,1/2,7/8,6,4/5,3,1/2,3,4,5/6,7,1/8,2,3/4,,
1/8,7,5/6,3/4,2,1/8,7,5/6,,2,1,3/8,7,8,1-5[8:1]/6,,
1b,8-4[8:1],,8b,,2-4[8:1]/5-1[8:1],,2b/5b,,4-8[8:1]/7-5[8:1],,4b/7b,,1/5,2/6,3/7,
4-1[8:1]/8-5[8:1],,4/8,,2/6,1^4[8:1],8,1,,8^5[8:1],1,8,,{16}1,8,1-5[8:1],8,1,8,
{4}1-6[8:1],1-4[8:1],1^6[8:1],1^4[8:1],
1-6[8:1]*-7[8:1],1-3[8:1]*-4[8:1],1w5[8:1],1b,

{8}
3/7,8,1,6^1[4:1]/2,,1^4[4:1],,4^7[4:1],,,8w4[8:1],,8,,2/6,
2/6,,4^1[8:1],5,4,,6-1[8:1]/8-4[8:1],,6/8,,3^6[8:1],1,3,,7/8,1/6,,
3/8,7,1/6,2^7[8:1],,6<3[4:1],,3,,,4-8[8:1]/5-1[8:1],,4/5,,2/7,5,
4/6,3,2/5,6,3/7,2,1/6,7,2/8,3/4,5/6,1^6[8:1]/7-3[8:1],,1b/7b,,,

2/6,1,8,3^8[4:1]/7,,8^5[4:1],,5^2[4:1],,,1w5[8:1],,1,,3/7,
3/7,,5^8[8:1],4,5,,1-5[8:1]/3-8[8:1],,1/3,,6^3[8:1],8,6,,1/2,3/8,,
2-6[8:1],7-3[8:1],2,7,,1-3[8:1]/8-6[8:1],,1-5[8:1]/8-4[8:1],,1^6[8:1]/8^3[8:1],,
1/8,,,2b/7b,,3/5,3/5,4/6,4/6,{16}1,8,1,8,{8}1,4/5,,2/7,2/7,,
{32}1-5[8:1],2,3,4,5,6,7,8,{16},,,,

4,6,4,6,3,7,3,7,2,8,2,8,{8}1,1h[4:1],,8,7h[4:1],1,{16}2,,,3/4,{8},5/6,
5^2[8:1]/6,,,,{16}8,1,8,1,{8}8,3/6,,4^7[8:1]/3,2,1h[8:3],,,8,,
{16}3,4,3,2,3,4,3,2,3,4,3,2,3,4,3,2,3,6,7,6,5,6,7,6,5,6,7,6,5,6,7,6,
5h[16:3],,,6h[16:3],,,7,,4h[16:3],,,3h[16:3],{8},2,1/8,2/7,3/6,4^1[8:1]/5^8[8:1],,,,,

2-5[8:1]/5,6,7,8,1-6[8:1],2,3,4,5h[4:1],6,7h[4:1],5,4h[4:1],5,6,5,
7-4[8:1]/4,3,2,1,8-3[8:1],7,6,5h[4:1],,1,2/6,3-6[8:1]/7-2[8:1],,,,,
4/8,3/7,2/6,1-5[8:1]/5-7[8:1],,1/5,,4-2[8:1]/8-4[8:1],,4/8,,1^4[8:1]/5^8[8:1],,1/5,,
4/8,2/6,4/7,3/5,4/6,2/5,3/7,1/6,
4^1[8:1]/8^5[8:1],,4pp7[1:1]/8pp3[1:1],,4/8,,,,,,,,,
{12}3,2,1,8,7,6,

{8}
4/5,,3,3,3,3,3,
4/5,,,7,7,7,7,7,7,
4/5,,1,1,1,1,1,
4^1[8:1]/5^8[8:1],,,,2b/7b,,,,,
{4}
3^6[2:1],7,7,7,
7p3[2:1],2,2,2,
2^7[2:1],6,6,6,
{8}
7/8,5/6,3/4,2-5[8:1]/6-1[8:1],,2b/6b,,,
1/2,3/4,5/6,3-8[8:1]/7-4[8:1],,3b/7b,,,

1/5,2/6,3/7,4^1[8:1]/8^5[8:1],,4/8,,2h[8:3],1,8,7h[4:1],5,2h[4:1],4,7,1b/8b,,
2^5[8:1]/7,1/8,7^4[8:1]/2b,,1-4[8:1]*-6[8:1]/7b,,1b,,
5-2[8:1]*-8[8:1],4/6,5b,,1/8,2/7,,3-7[8:1],6-2[8:1],3,6,,
1-5[8:1]/8-4[8:1],,1b^6[8:1]/8b^3[8:1],,1bpp4[8:3]/8bqq5[8:3],,1b/8b,,,,
{16}1,8,2/7,,2/7,,3/6,,3/6,,1,8,1,8,1,,4/5,,,,2/7,,2/7,,,,
{32}8-4[8:1],7,6,5,4,3,2,1,{8},,

5b^8[8:3]/3,2,1,8^3[4:1],,3q7[4:1],,7q3[4:1],,3^6[4:1],,6<3[4:1]*q3[4:1],,,,,
4/5,{16}6,5,{8}6,7h[4:1]/4,,8,1,2h[4:1]/5,,1,8,2V41[4:1]/7V58[4:1],,,,,
2/7,3^8[8:1],4,3,,7-3[8:1],6/8,7,,2-6[8:1],1/3,2,,7,
6^1[4:1],5,1^4[4:1],,4^7[4:1],,7,,
8,8-2[8:1]*-3[8:1],,8-5[8:1]*-6[8:1],,8-4[8:1],,8b,,,
4/5,{24}1-5[8:1]/8-4[8:1],2/7,3/6,{8}4/5,1/8,,3/6,4/5,
{1}1b/8b,,,,E


Re:MASTER


名前:
コメント:

タグ:

+ タグ編集
  • タグ:

このサイトはreCAPTCHAによって保護されており、Googleの プライバシーポリシー利用規約 が適用されます。

最終更新:2020年07月30日 21:22