[宴]四月の雨

BPM 属性 COMMENT
79 ちゃんとしたBPMはこっちでしょ

属性:宴

(79){16}7,,,,
2q7[158#4:1]/6h[16:1],5h[16:1],4h[16:1],3h[16:1],,,,,1s5[158#4:1],3/7,,3/7,,,,,
7p2[158#4:1]/3h[16:1],4h[16:1],5h[16:1],6h[16:1],,,,,8h[16:1],6h[16:1],4h[16:1],2h[16:1],
{8}
7q3[158#4:1],1,2q6[158#4:1],8,7>6[158#4:1],1,,,
2p6[158#4:1],8,7p3[158#4:1],1,2^7[158#8:1],8,,{32}4,4,5,5,

{16}1p6[158#2:1],,8,,6>1[158#2:1],7,7,,1p6[158#2:1],,8,,6,7b,,7b,
{8}8q3[158#2:1],1,3<8[158#2:1],2,8q3[158#2:1],1,3,,
1-7[158#4:1],7-2[158#4:1],2-6[158#4:1],6-3[158#4:1],3-5[158#4:1],5-1[158#4:1],,,
8-6[158#8:1],1-5[158#8:1],2-4[158#8:1],,
7-5[158#8:1],8-4[158#8:1],1-3[158#8:1],,
{16}8q1[158#4:13],8,8,8,7,7,7,7,6,6,6,6,5,5,5,5,4,4,4,4,3,3,3,3,2,2,2,2,,,,,

2-5[158#8:1],2,1,8,7-4[158#8:1],7,8,1,
2^5[158#8:1],2,1,8,7^4[158#8:1],7,8,1,
2q6[158#8:1],2,1,8,7p3[158#8:1],7,8,1,2,2,1,8,
8-2[158#8:1],2-6[158#8:1],6V84[158#4:1],,,,,,
6^3[158#8:1],6,7,8,2-5[158#8:1],2,1,8,
7-4[158#8:1],7,8,1,3^6[158#8:1],3,2,1,7,7,8,1,2,7,
{32}4,6,1,7,3,5,2,8,{16}1,,

6-2[158#8:1],6,5,4,3-7[158#8:1],3,4,5,
6^1[158#8:1],6,5,4,3^8[158#8:1],3,4,5,
6p1[158#8:1],6,5,4,3q8[158#8:1],3,4,5,6,6,5,4,
1^7[158#8:1],7-3[158#8:1],3^1[158#8:1],1-5[158#8:1],,,,,
2^7[158#8:1],2,3,4,6-1[158#8:1],6,5,4,
3-8[158#8:1],3,4,5,7^2[158#8:1],7,6,5,3,3,4,5,
8h[16:1]/7,7,4h[16:1]/3,3,1h[16:1]/2,2,5h[16:1]/6,6,2,,,,

8,8^2[158#8:1]*^6[158#8:1],2v4[158#8:1]/6v4[158#8:1],,,,,,
1,1^3[158#8:1]*^7[158#8:1],3v5[158#8:1]/7v5[158#8:1],,,,,,
8v2[158#4:1]*v6[158#4:1],8,2^4[158#8:1]/6^4[158#8:1],,,,,,
1v3[158#4:1]*v7[158#4:1],1,3^5[158#8:1]/7^5[158#8:1],,,,,,
7^5[158#8:1],5-1[158#8:1],1^3[158#8:1],3-7[158#8:1],,,,,
2^4[158#8:1],4-8[158#8:1],8^6[158#8:1],6-2[158#8:1],,,,,8,3,6,1,
{32}5,2,7,4,8,3,6,1,5,2,7,4,8,3,6,1,

{8}
5h[4:1],,2h[4:1],1-5[158#8:1],7h[8:1],,6h[4:1],8-4[158#8:1],
3h[8:1],,1h[4:1],3^6[158#8:1],8h[4:1],,4h[8:1],5h[8:1],
2h[4:1],8-3[158#8:1],7h[4:1],8-5[158#8:1],
1h[4:1],8-3[158#8:1],6h[4:1],8-5[158#8:1],
2h[4:1],8q4[158#8:1],7h[4:1],8p4[158#8:1],
1h[4:1],8,{32}6,6,3,3,{16}8,,

1-3[158#16:1],1-4[158#16:1],1-5[158#16:1],1-6[158#16:1],,,,,
8-6[158#16:1],8-5[158#16:1],8-4[158#16:1],8-3[158#16:1],,,,,
2-7[158#16:1],2-6[158#16:1],2-5[158#16:1],2-4[158#16:1],,,,,
7-2[158#16:1],7-3[158#16:1],7-4[158#16:1],7-5[158#16:1],,,,,
3^6[158#16:1],3q7[158#16:1],3v8[158#16:1],3-1[158#16:1],,,,,
6^3[158#16:1],6p2[158#16:1],6v1[158#16:1],6-8[158#16:1],,,,,
4^7[158#16:1],4q8[158#16:1],4-1[158#16:1],4^2[158#16:1],,,,,
5>5[158#4:1],5,5,5,,,,,

{32}
8,7,6,5,8-4[158#16:1],1,2,3,8,7,8,1,,,,,
1,2,3,4,1-5[158#16:1],8,7,6,1,2,1,8,,,,,
2,3,4,5,7s3[158#16:1],6,5,4,2,1,8,7,,,,,
1,8,7,6,8,1,2,3,6,6,5,5,4,4,3,3,
7,4,7,4,6,3,6,3,5w1[158#4:1],2,5,2,6,3,6,3,
{4}5pp1[158#4:1]*qq1[158#4:1],,
{32}1p4[158#4:1],5p8[158#4:1],2,6,3,7,4,8,{4},
{32}8q5[158#4:1],4q1[158#4:1],7,3,6,2,5,1,{4},

{16}
4-7[158#8:1],,8,,5-2[158#8:1],1,1,,3-8[158#8:1],,7,,6-1[158#8:1],2b,,2b,
8-3[158#8:1],,4,,1-6[158#8:1],,5,,7-4[158#8:1],,3,,2,2,{48}6,5,6,5,6,5,
{16}
6-1[158#8:1],1-6[158#8:1],2-5[158#8:1],5-2[158#8:1],,,,,
8-3[158#8:1],3-8[158#8:1],4-7[158#8:1],7-4[158#8:1],,,,,
1-5[158#8:1],5-1[158#8:1],3-7[158#8:1],7-3[158#8:1],,,,,
8-4[158#8:1],4-8[158#8:1],6-2[158#8:1],2-6[158#8:1],,,,,
3v2[158#8:1],7v6[158#8:1],3v4[158#8:1],7v8[158#8:1],,,,,
2v3[158#8:1],6v7[158#8:1],2v1[158#8:1],6v5[158#8:1],,,,,
4v1[158#8:1],8v5[158#8:1],4v3[158#8:1],8v7[158#8:1],,,,,
1v4[158#8:1],5v8[158#8:1],1v2[158#8:1],5v6[158#8:1],,,,,

{1},,,E


  • 修正箇所等ありましたら修正・加筆おねがいします。 -- Sea (2019-01-16 17:21:00)
名前:
コメント:

タグ:

+ タグ編集
  • タグ:

このサイトはreCAPTCHAによって保護されており、Googleの プライバシーポリシー利用規約 が適用されます。

最終更新:2019年01月16日 17:20