the EmpErroR

BPM EASY BASIC ADVANCED EXPERT MASTER Re:MASTER
240 3 5 9+ 12+ 14+ 14+

EXPERT MASTER Re:MASTER
譜面制作者 - 小鳥遊さん -Zone- SaFaRi

EASY


BASIC

(240){1},,,,,,,,
{2}1,1,
{1}1,
{2}2,2,
{1}2,
{2}3,3,
{1}3,
{2}4,5,
{1}4,
{2}5,5,
{1}5,
{2}6,6,
{1}6,
{2}7,7,
{1}7,
{2}8,1,
{1}8b,
{1}1-4[4:3],,
{1}8-5[4:3],,
{2}1,1,
{1}1/2,
{2}2,2,
{1}1/3,
{2}8,8,
{1}7/8,
{2}7,7,
{1}6/8,
{2}1,1,
{2}2,2,
{2}3,3,
{2}4,4,
{2}5,5,
{1}6h[2:1],
{4}5/6,,,3/4,
{2},5/6,
{4},3h[4:3]/4h[4:3],,,
{2},3/5,
{4},4/6,,,
{4}3/5,,,4h[4:3]/6h[4:3],{1},
{2}6,6,
{2}5,5,
{2}4,4,
{2}3/4,3,
{2}3,4,
{2}4,5,
{2}5,5/6,
{4}6h[8:3],,,5h[8:3],
{2},4h[8:3],
{4},3h[8:3],,,
{2}3/4,3h[8:3],
{4},4h[8:3],,,
{4}5h[8:3],,,6h[8:3],
{2},5/6,
{1}5b/6b,,
{2}6,6,
{1}6,
{2}7,7,
{1}7,
{2}8,8,
{2}1,1,
{2}8,8,
{1}1/8,
{2}2,2,
{1}2,
{2}3,3,
{1}3,
{2}4,4,
{2}5,5,
{2}4,4,
{1}4/5,
{4}6,6,6,,
{4}6,6,6,,
{4}5,5,5,,
{4}5,5,5,,
{4}4,4,4,,
{4}4,4,4,,
{4}3,3,3,,
{1}3/4,
{4}3,3,3,,
{4}3,3,3,,
{4}4,4,4,,
{4}4,4,4,,
{4}5,5,5,,
{4}5,5,5,,
{4}6,6,6,,
{1}5/6,
{1}7-3[4:3],,
{1}2-6[4:3],,
{1}8-4[4:3],,
{1}1-5[4:3],,
{4}8,8,8,,
{4}7,7,7,,
{4}6,6,6,,
{1}5h[2:1],
{4}4,4,4,,
{4}3,3,3,,
{4}2,2,2,,
{1}1h[2:1],
{1}1-4[4:3],,
{1}8-5[4:3],,
{2}1,1,
{2}8,8,{1},
{1}1h[1:4]/8h[1:4],,,,,
E

ADVANCED

(240)
{2}5h[2:3],4,
{2}4,4,
{2}4h[2:3],5,
{2}5,5,
{2}5h[2:3],4,
{2}4,4-1[2:1],
{4},,,2/7,
{8}1,1,8,8,1,,2/7,,
{4}3,3,3/4,3/4,
{4}3,3,3/4,4/5,
{4}6,6,5/6,5/6,
{4}6,6,5/6,4/5,
{4}3,3,3/4,3/4,
{4}3,3,3/4,4-1[2:1]/5-8[2:1],{1},
{8}8,8,1,1,8,,2/7,,
{4}6,6,5/6,5/6,
{4}6,6,4/6,3/5,
{4}3,3,3/4,3/4,
{4}3,3,3/5,4/6,
{4}6,6,5/6,5/6,
{4}6,6,5/6,4-1[2:1]/5-8[2:1],{1},
{4}1/8,2/7,3/6,4b/5b,
{2}6h[2:3],5,
{2},5,
{2}3h[2:3],4,
{2},4,
{2}4h[2:1],3h[2:1],
{2}2h[2:1],1,
{1}8-5[2:1],
{1}4-1[2:1],
{2}8h[2:1],7h[2:1],
{2}6h[2:1],5,
{1}4-1[2:1],
{1}8-5[2:1],
{2}4h[2:1],3h[2:1],
{2}2h[2:1],1,
{1}8-4[2:1],
{1}2-6[2:1],
{2}7h[2:1],6h[2:1],
{4}5,5,4/5,,
{4}4,4,4,3,
{4}3,3,2,2,
{4}2,1,1,1,
{4}1/8,1/8,8,8,
{4}8,7,7,7,
{4}6,6,6,5,
{4}5,5,4/5,4/5,
{4}4/5,5,5,4/5,
{4}4,4,4/6,6,
{4}6,3/6,3,3,
{4}3/6,3/6,2/7,2,
{4}2,2/7,7,7,
{4}1/7,1,1,1/8,
{4}8,8,1/8,1/8,
{4}1/8,1,1,1/8,
{4}8,8,2/8,2,
{4}2,2/7,7,7,
{4}2/7,2/7,3/6,3,
{4}3,3/6,6,6,
{4}4/6,4,4,4/5,
{4}5,5,4/5,5/4q5[2:3],{1},,
{1}5/6h[2:3],
{2}5,5,
{1}4/3h[2:3],
{2}4,4,
{1}6/5h[2:3],
{2}6,6,
{1}3/4h[2:3],
{2}3,3,
{2}4/6h[2:3],5,
{2}4,5,
{2}5/3h[2:3],4,
{2}5,4,
{2}6/4h[2:3],5,
{2}6,5,
{1}3h[1:1]/6h[1:1],,
{8}6,,5/6,,7,7,7,,
{4}7/8,1/6,2/5,3/4,
{4}5,6,7,1/8,
{4}2,3,4/5,4/5,
{8}3,,3/4,,2,2,2,,
{4}1/2,3/8,4/7,5/6,
{4}4,3,2,1/8,
{4}2/7,2/7,4/5,4/5,
{8}6,,5/6,,7,7,7,,
{8}1/8,,2,,3,3,3/4,,
{8}5,,6,,7,7,7,,
{4}1/8,2/7,4/5,4/5,
{8}3,,3/4,,2,2,2,,
{8}1/8,,7,,6,6,5/6,,
{8}4,,3,,2,2,2,,
{8}1/8,1/8,1/8,,2/7,2/7,2b/7b,,
{4}6,5/6,3,3/4,
{4}2,1/2,8,7,
{4}6,6,7h[4:1],6h[4:1],
{4}5h[4:1],4h[4:1],3h[4:1],2,
{4}3/4,3/4,4,5,
{4}5/6,5/6,5,4,
{1}3-8[2:1],
{1}7-4[2:1],
{8}3,3,3/4,,6,6,5/6,,
{8}7,7,7/8,,2,2,1/2,,
{8}3,3,3,,2h[4:1],,3h[4:1],,
{4}4h[4:1],5h[4:1],6h[4:1],7,
{8}8,8,7,7,6,6,5,,
{8}4,4,3,3,2,2,1,,
{8}1,1,2,2,3,3,4,4,
{8}5,5,6,6,7,7,8,8,
{1}1-5[4:3],,
{1}5-1[4:3],,
{1}8-4[4:3],,
{1}4/5,
{8}4,4,4,4,5,5,5,5,
{8}4,4,4,4,5,5,5,5,
{8}4,4,5,5,4,4,5,5,
{8}4,3,2,1,8,7,6-3[2:1],,,,,,,
E



EXPERT

(240)
{8}6h[8:3],,5,5h[4:1],,6,,3h[8:3],
{8},4,4h[4:1],,3,,2/5,,
{4}3h[4:1],4h[4:1],5h[4:1],6h[4:1],
{4}3h[4:1],4h[4:1],5h[4:1],6,
{8}3h[8:3],,4,4h[4:1],,3,,6h[8:3],
{8},5,5h[4:1],,6,,2/7,,
{8}1/8,1^4[4:1]/8^5[4:1],,,,,,,
{8}1/8,1/8,1/8,1/8,1/8,1/8,2b/7b,,
{8}3,,2/4,,5,5,4,5h[4:1],
{8},3,3,4,3/4,,2/5,,
{8}6,,5/7,,4,4,5,4h[4:1],
{8},6,6,5,5/6,,4/7,,
{8}3,,2/5,,6,6,5,6h[4:1],
{8},3,3,4,3/4,,2/7,,
{1}1V74[2:1]/8V25[2:1],
{8}2,4,3,5,4,6,5,,
{8}7,,6/8,,1,1,8,1h[4:1],
{8},7,7,8,7/8,,1/6,,
{8}2,,1/3,,8,8,1,8h[4:1],
{8},2,2,1,1/2,,3/8,,
{8}7,,1/6,,2,2,1,2h[4:1],
{8},7,7,8,7/8,,3/6,,
{4}2-5[8:1],1,7-4[8:1],8,
{4}1-5[8:1],8,2b/7b,,
{8}6h[8:3],,5,5h[2:1],,,,4h[8:7],
{8},,,3h[8:3],,,,,
{8}3h[8:3],,4,4h[8:11],,,,5<2[8:5],{1},
{8}3/4,,3/4,,4,3h[4:1],,4,
{8}3h[4:1],,4,3h[4:1],,4,3,,
{8}7,,5,5,,5/6,,5/6,
{8},5/7,,5/7,,5/6,,,
{8}2/4,,2/4,,4,2h[4:1],,4,
{8}2h[4:1],,4,2h[4:1],,4,2,,
{8}7,,5,5,,5/7,,5/7,
{8},6/7,,6/7,,5/7,,,
{8}1/4,,1/4,,4,1h[4:1],,4,
{8}1h[4:1],,4,1h[4:1],,4,1,,
{8}7,,5,5,,5/7,,5/7,
{8},5/8,,5/8,,5/7,,,
{8}4,,4/5,,3/6,3h[4:1]/6h[4:1],,,
{8}1/8,1/8,1/8,1/8,1/8,1/8,2b/7b,,
{8}3/4,3/4,,2/5,,,1/2,1/2,
{8},3/8,,,5/6,5/6,,4/7,
{8},,7,7,8,8,6,6,
{8}1,,2/7,,5/6,5/6,,4/7,
{8},,7/8,7/8,,1/6,,,
{8}3/4,3/4,,2/5,,,2,2,
{8}1,1,3,3,8,,2b/7b,,
{8}4/5,,3,3/4,,3,3/5,,
{8}3,3/6,,3,3/7,,3,3/8,
{8},3,1/3,,3,2/3,,3,
{8}3/4,,2/7,,4/5,,6,5/6,
{8},6,4/6,,6,3/6,,6,
{8}2/6,,6,1/6,,6,6/8,,
{8}6,6/7,,6,5/6,,2b/7b,,
{4}1,1/2,2,2/3,
{4}3,3/4,4,4/5,
{4}5,5/6,6,6/7,
{8}7,,7b/8b,,1,1,7,7,
{8}5,5,8,8,2,2,4,4,
{8}8,8,6,6,4,4,2,2,
{8}1,1,7,7,5,5,3,3,
{1}2bp4[4:5]*<5[4:5],,
{1}6h[1:2],
{1}5,
{1}3h[1:2],
{1}4,
{1}6^3[4:3],
{1}2h[1:1],
{1}3^6[4:3],
{1}7,
{2}7h[4:1]/2^5[4:3],6h[4:1],
{2}7h[4:1],4h[4:1]/6h[4:1],
{2}3h[4:1]/7^4[4:3],2h[4:1],
{2}3h[4:1],4h[4:1]/5h[4:1],
{2}6h[4:1]/3^8[4:3],5h[4:1],
{2}6h[4:1],2h[4:1]/7h[4:1],
{1}1pp4[8:9]/8qq5[8:9],,
{8}3/4,,6,5,7,8,7,1/6,
{16},,7,,7,,1,,1,2,3,,8,,,,
{8}2,2,4,4,5,5,7,7,
{8}8,7,8,7,,1/6,1/6,,
{8}5/6,,3,4,2,1,2,3/8,
{16},,2,,2,,8,,8,7,6,,1,,,,
{8}4/7,4/7,,2/5,,3/6,,2/7,
{16}1,8,1,8,1,,,,4/5,,,,3/6,,,,
{8}1/2,,7,8,6,5,6,4/7h[8:5],
{16},,8,,8,,1,,1,2,3,,8,,,,
{8}7,7,5,5,4,4,2,2,
{8}1,2,1,2,,3/8,3/8,,
{8}7/8,,2,1,3,4,3,5/2h[8:5],
{16},,1,,1,,8,,8,7,6,,1,,,,
{8}2/4,4/2-5[4:1],,6,6,6,6,,
{8}1/8,1/8,1/8,1/8,1/8,1/8,2b/7b,,
{8}4/7,,2/5,5/2-5[8:1],,6-1[8:1],,2-5[8:1],
{8},6-1[8:1],,2^5[8:1],,6^1[8:1],,2^5[8:1],
{8},6^1[8:1],,2,{6},3h[6:1],4h[6:1],
{6}5h[6:1],6h[6:1],7h[6:1],8h[6:1],1h[6:1],2h[6:1],
{8}3,,5/6,5/6-8[8:1],,5-3[8:1],,6-1[8:1],
{8},5-2[8:1],,6,,4/8,,7,
{8}7,5h[4:1],,3h[8:3],,1,1^4[4:1]*<5[4:1],,
{2},2b/7b,
{8}2/5,,4/7,4/7-4[8:1],,3-8[8:1],,7-4[8:1],
{8},3-8[8:1],,7^4[8:1],,3^8[8:1],,7^4[8:1],
{8},3^8[8:1],,7,{6},6h[6:1],5h[6:1],
{6}4h[6:1],3h[6:1],2h[6:1],1h[6:1],8h[6:1],7h[6:1],
{8}6,,3/4,4/3-1[8:1],,4-6[8:1],,3-8[8:1],
{8},4-7[8:1],,3,,2/6,2/6,,
{8}3/4,3/4,2/5,,5/6,5/6,4/7,,
{8}1/8,1/8,1/8,1/8,1/8,1/8,2b/7b,,
{8}7,8,7,1/6h[4:1],,5h[4:1],,4h[4:1],
{8},3h[4:1],,2,,1/2,1/2,,
{8}2,1,2,8/3h[4:1],,4h[4:1],,5h[4:1],
{8},6h[4:1],,7,,7/8,7/8,,
{8}6,5,6,7/4h[4:1],,2h[4:1],,8h[4:1],
{8},6h[4:1],,4,,2/7,2/7,,
{1}4-1[4:1]/5-8[4:1],
{4}1,8,2,7,
{8}1,1,8,8,2,2,7,7,
{16}1,8,1,8,1,8,1,8,1,8,1,8,1,8,1,8,
{16}1,8,1,8,1,8,1,8,1,8,1,8,1-5[4:1]*s5[4:1],8,1,8,,,,,,
E

MASTER

(240){8}
4/5,,3,3,,6,6,,4,5,4,,2/5,,7/4,,
1v2[4:1],,8,8v7[4:1],,,,,2/5,,3/6,,
5,4,4/5,,1/8,,7,7,,2,2,,8,1,8,,2,3,4/5,,
5s1[4:1],5,,,,,5b,,
4,4,5,5,2/6,2/6,3/7,3/7,

8b/4b,,3,3,5,4,6,5,4/7,,2,2/1,,7,7/8,,
2,1<6[8:1],2,1>4[8:1],,1-6[8:1],,1-4[8:1],,1,,1,
{16}
1,8,7,6,
{4}
5/1,
{8}
5/4,,5,5,3,4,2/5,,1/8,,7,7/8,,2,2/1,,3h[4:1]/8h[4:1],,,1h[4:1]/4h[4:1],,,1/4,,
7h[4:3]/3,3,3,3,3,3,3,,
1b/5b,,6,6,4,5,3,4,2/5,,7,7/8,,2,2/1,,
7,8>3[8:1],7,8<5[8:1],,8-3[8:1],,8-5[8:1],,8,,8,
{16}
8,1,2,3,
{4}
4/8,
{8}
5/4,5,4,4,6,5,7b/4,,
1/8,,2,1/2,,7,7/8,,
3,3,5,5,4,4,6,6,
4/5,4/5,4/5,4/5,6/3,2/7,8b/1b,,

{8}
1,2,3,4,,6,5,4,,3,4,5,,4,4,,
6,5,4,5,,4,5,6,7h[4:3],5,4,3,,5,5,,
5/6,,4,,6,4,,3,3/6,,4,,6,,5,,
5h[4:1]/6h[4:1],,,5/6,,
{96}
6,5,,,,,,,,,,,,,,,,,,,,,,,
{4}
5/6,
{96}
5,6,,,,,,,,,,,,,,,,,,,,,,,
{8}
5/6,4,4,,3,
6,5,4,3,5,4,3,3,
5h[4:1],,3,4h[4:1],,6,5,,
4/5,4/5v6[8:1],,4v3[8:1],,,,,
{16}
8,1,8,1,
{4}
8,
{8}
4,4,4/5,,
3/4,,5,,3,5,,6,6/3,,5,,3,,4,,
3h[4:1]/4h[4:1],,,3/4,,
{96}
3,4,,,,,,,,,,,,,,,,,,,,,,,
{4}
3/4,
{96}
4,3,,,,,,,,,,,,,,,,,,,,,,,
{8}
3/4,5,5,,6,
3,4,5,6,4,5,6b,6,
1,1,1,1,1/8,1/8,1,1,

{8}
7,7-3[8:1],7,7h[4:1],,,
2,2-6[8:1],2,2h[4:1],,,
5,5-1[8:1],5,5h[4:1],,,
4,4-8[8:1],4,4h[4:1],,,
{4}
4/8,2/6,
{8}
8,8-4[8:1],8,8h[4:1],,,
1,1-5[8:1],1,1h[4:1],,,
6,6-2[8:1],6,6h[4:1],,,
3,3-7[8:1],3,3h[4:1],,,
8,8,1,1,

7-5[8:1],,7,1-3[8:1],,1,
6-8[8:1],,6,4-2[8:1],,4,
6-4[8:1],,6,8-2[8:1],,8,
4-8[8:1],,4,1,,1,2/6,,4/8,,
2-4[8:1],,2,8-6[8:1],,8,
3-1[8:1],,3,5-7[8:1],,5,
3-5[8:1],,3,1-7[8:1],,1,
5-1[8:1],,5,8,,8,1,1,8,8,

3-1[8:1],,3,5-7[8:1],,5,
4-1[8:1],,4,5-8[8:1],,5,
1>4[8:1],,1,8q5[8:1],,8,
1p4[8:1],,1,8<5[8:1],,8,
1,,3/7,,
2-4[8:1],,2/6,7-5[8:1],,7/4,
3-5[8:1],,3/5,6-4[8:1],,3/6,
2-5[8:1],,2/6,7-4[8:1],,7/2,
1-5[8:1],,1/7,8-4[8:1],,8/2,
1b,1b,1b,1b,
6,5,3,4,,6,,4,,3,,5,,3,4,,

{8}
1h[1:1]/8,,7,7,,6,,6,,6,,5,,5,,5,
3h[1:1],6,,6,
{6}
,7,7,7,7,7,7,7,7,
{8}
6/4h[1:1],,5,5,,6,,6,,6,,7,,7,,8,
8/5h[1:1],8,,7,,6,6,,,,
{4}
,,,
{8}
8h[1:1]/1,,2,2,,3,,3,,3,,4,,4,,4,
6h[1:1],3,,3,
{6},2,2,2,2,2,2,2,2,
{8}
3/5h[1:1],,4,4,,3,,3,,3,,2,,2,,1,
1/4h[1:1],1,,2,,3,3s7[2:1],,,,
{4},,,

{8}
4/5,,3,4,5,4,3,2,
1/8,7,1/8,2,
{16}
1/8,7,
{8}
6,2,2,
{16}
8,7,6,5,1,2,3,4,5,6,7,8,
1/7,2/6,3/5,,
1,2,3,4,8,7,6,5,4,3,2,1,
2/8,3/7,4/6,,
{8}
2/7,,6,5,4,5,6,7,8/1,2,8/1,7,
{16}
1/8,2,
{8}
3,7,7,
2,1-6[8:1],2,1-4[8:1],,1,,1,
{16}
3,4,3,4,3,,2/5,,1,8,1,8,
{4}
2b/7b,

{8}
4/5,,3,4,5/3,4,3,2,
1/8,7,1/8,2,
{16}
1/8,7,
{8}
2/6,3,3,
{16}
5,6,7,8,4,3,2,1,8,7,6,5,
4/6,3/7,2/8,,
4,3,2,1,5,6,7,8,1,2,3,4,
5/3,6/2,7/1,,

{8}
3/6,,6,5,4/6,5,6,7,8/1,2,1/8,7,
{16}
1/8,2,
{8}
3/7,6,6,
4,4h[4:1],,6,5,4,3,2,
1/5,2/6,3/7,4/8,3/7,2/6,
{16}
1/5,2,3/7,4,

{8}
1b/5b,,3/6,,5/6,,6/4,6,
5/6,,2/6,,5/6,,6/4,6,
6/8,,6/1,,6/3,,6/5,6,
6/5,,6/3,,
{12}
6/3,5,4,3,4,5,
{8}3/6,,3/6,,3/4,,3/5,3,
3/1,,3/7,,3/4,,3/6,3,
3/4,,2/3,,3/4,3,3/6,,

{8}
3/6,3/6,2/7,2/7,1/8,1/8,2b/7b,,

{16}
3/8,,2,1,2,,8,1,8,,3/7,,,,1/5,,
2,4,2,4,2,,8,,7,5,7,5,7-4[8:1],,,,
{8}
7/8,1-5[8:1],2,1<6[8:1],,1,,4,
7/5,6,3/5,4,3/5,2,1/8,,

{8}
4/8,4/8,3/6,3/6,1/4,1/4,2/7,2/7,
8/1,8/2,8/3,8/4,8/5,8/6,8/7,8/1,

{16}
8/1,2,3,4,5,6,7,8,
1/5,4,3,2,1,8,7,6,
5/1,2,3,4,
5/8,7,6,5,
{32}
4/2,3,4,5,6,7,8,1,2,3,4,5,6,7,8,1,

{1}
2bz6[1:1]/6b,,
{4}
3h[128:1]/5h[64:1],4h[128:1]/6z2[1:1],,
{1}
,
{4}
,4h[128:1]/6h[128:1],5h[128:1]/3z7[1:1],,,
{1}
,
5-1[8:1],

{16}
1,8,1,8,1,8,1,8,1,8,1,8,1,8,1,8,
1,8,2,7,1,8,2,7,1,8,2,7,1,8,2,7,
1,8,1,8,1,8,1,8,1,8,1,8,1,8,1,8,

2,3,4/8,7,6/1,2,3/7,6,5/2,3,4/8,7,6/1-5[8:1],2,3/7,6,


{1}1b/5,,,,,E

Re:MASTER

(240)
{8}3h[4:1],,5h[4:1],,4h[4:1],5,6h[8:3],5h[8:3],,,6,,56,,47,,
7-5[8:1]/5,,3,,2,2,4,4,2-4[8:1]/4,,6,,6,,56,,
6h[4:1],,4h[4:1],,5h[4:1],4,3h[8:3],4h[8:3],,,3,,34,,25,,
6,6h[4:1],3,3h[4:1],5,5h[8:1],2b,,1,1,8,8,37,37,26,26,

{4}2-4[8:1]/6,12,1-5[8:1],18,8-6[8:1],68,5,46,
{8}5h[4:1]/7,7,6,6h[4:1],4,4,5h[4:1]/7,7,6,4,45,,45,,36,,
8V62[8:3]/2,,4,,3,3,13,,1V37[8:3]/7,,5,,6,6,68,,
7-4[8:1],2-5[8:1],,,8,,18,,57,7,46,4,35,5,26,,
{4}7-5[8:1],78,8-4[8:1],18,1-3[8:1],13,4,35,
{8}2/4h[4:1],2,3,3h[4:1],5,5,4h[4:1]/2,2,3,34,25,,18,,45,,
1V37[8:3]/7,,5,,6,6,68,,8V62[8:3]/2,,4,,3,3,13,,
2-6[8:1]/6,2/6-2[8:1],,8,8-4[8:1],,1,,2,2,26,26,2,2,37,,
{8}5h[4:1]/6h[4:1],,,4h[4:1]/5h[4:1],,,3h[8:3],4h[4:1],,,5h[8:3],3h[4:1],,,
3h[8:3]/5h[4:1],,,,5h[8:3],4h[8:3],,,5s1[8:6],4z8[8:5],{1},

{4}7-5[4:1],5-3[4:1],3,2,2V46[2:1],4,6,7,{8}1h[4:1]/8h[4:1],,,1/8V63[2:1],,2,,3V58[2:1],,2,,1,1,,27,,
3h[4:1],5h[4:1],,,4h[4:1],6h[4:1],,,4h[4:1]/5,,6h[8:3],3h[4:1],,,36,,
45,4v3[4:1]/5,,5v6[4:1],,,,,{16}1,8,1,8,1,,,,{8}5,5,45,,
{4}2V46[2:1],4,6,8,7V53[2:1],5,3,1,{8}1h[4:1]/8h[4:1],,,1V36[2:1]/8,,7,,6V41[2:1],,7,,8,8,,27,,
3,4,5,6,{16}4,5,4,,{8}27,,2,2,28,8,84,4,46,6,

6/2-5[4:1],,8,8h[4:1],,,7-4[4:1]/4,,2,2h[4:1],,,3-8[4:1]/8,,6,6h[4:1],,,26,3,4,47,6,5,25,,46,,
3/7-4[4:1],3,2,1h[4:1],,,5/2-5[4:1],5,6,7h[4:1],,,7-4[4:1]/1,1,2,3h[4:1],,,
{16}3,4,3,4,3,5,4,5,4,6,5,6,5,4,3,2,1,8,7,6,
{8}45,,5,4h[4:1],,5,3h[4:1]/6,,4,2h[4:1]/5,,1,3/8h[4:1],,1,2/7h[4:1],,8,1/6h[4:1],,5,47,,34,25,,3,,
4h[16:1]/7h[4:1],,8,1h[4:1]/6h[16:1],,8,2h[4:1]/7h[16:1],,1,3h[4:1]/8h[16:1],,4,
2h[16:1]/5h[4:1],,4,3h[16:1]/6h[4:1],,5,4h[16:1]/7h[4:1],,8,1h[4:1]/6h[16:1],,,25,2,48,8,
{4}8V62[2:1]/2,1h[16:1],2V48[2:1],1h[16:1],8V62[2:1],1h[16:1],2V48[2:1],1h[16:1],8,1h[16:1],
{8}18,2h[16:1]/7h[4:1],,8,1h[16:1]/6h[4:1],,5b,,
{4}4<8[4:1],8>4[4:1],4<8[4:1],8>4[4:1],4<8[4:1],8>4[4:1],{8}4V68[4:1],4,8V24[4:1],8,4V68[4:1],4,8V24[4:1],8,
4,4,5,6,2/7b,2b/7,2/7b,2b/7,2h[4:1]/7h[8:3],,,3h[4:1],,6h[4:1],,4h[2:1],,5h[4:1],,,,4h[8:1]/5h[8:1],,,

{2}6V48[1:1],2,8V64[1:1],2,4V62[1:1],3,2V84[1:1],3,4V68[1:1],2,8z4[1:1],2,4s8[1:1],2,1,45,
{4}3V51[1:1],6,7h[16:1],8,1V35[1:1],8,7h[16:1],6,5V37[1:1],6,7h[16:1],8,
7V15[1:1],6,6h[16:1],6,5V31[1:1],6,7h[16:1],8,1s5[1:1],8,7h[16:1],6,{1}6h[1:1],5s1[2:1],

{4}7^4[8:1]/8,3,1/2^5[8:1],7,1/8-4[8:1],3,{16}35,26,17,,17,,,,
18,7,6,5,43,5,6,7,81,2,3,4,56,4,3,2,18,7,6,5,43,5,6,7,18,2,3,4,{4}57,

3-6[8:1]/4,8,5/7-2[8:1],4,1/3^6[8:1],8,{16}8,17,26,,26,,,,{8}3,4^7[8:1],3,4^1[8:1],,4,,78,
{16}6,5,6,5,7,,7,,2,1,2,1,38,,,,
{8}3^8[8:1]/4,,7,7,5/6^1[8:1],,3,3,4-8[8:1]/5,,7,7,{16}17,26,35,,35,,,,
54,3,2,1,87,1,2,3,45,6,7,8,12,8,7,6,54,3,2,1,87,1,2,3,45,6,7,8,{8}13,,
2-7[8:1]/4,,5,5,8/6-3[8:1],,1,1,4/2^7[8:1],,5,5,{16}5,46,37,,37,,,,
{8}16,4/3h[4:1],,8,56,,34,,27,27,36,36,4/5h[4:1],,{32}4,3,2,1,8,7,6,5,{8}4b/8b,,

16,1/6-1[8:1],,2-6[8:1],,7-2[8:1],,3-7[8:1],,8-3[8:1],,4-8[8:1],,8,7,6/1-5[8:1],,1/5>1[1:1],
{6},6h[1280:1],6,6h[1280:1],5h[1280:1],5,5h[1280:1],4h[1280:1],4h[1280:1],
{8}41,,47,4-8[8:1]/7^4[8:1],,47,,2-4[8:1]/6-4[8:1],,2-8[8:1]/6-8[8:1],,26,,26,26,,
48,4-8[8:1]/8-4[8:1],,48,,26,26,,15,26,37,48,37,26,{16}15,6,73,8,{4}1/5b,
{16}27,,6,5,6,,4,5,4,5,4,,36,,2,1,2,,36,,7,8,7,,1,8,1,8,27,,3,4,3,4,2,,6,5,6,5,7,,
18,,2,4,3,7,5,6,3,4,1,8,1,8,{8}2b/7b,,15,15,36,36,48,48,2,2,12,23,34,45,45,36,27,27,
{16}27,3,4,5,6,7,8,1,25,4,3,2,1,8,7,6,{32}5/1b,2,3,4,5,6,7,8,1,2,3,4,5,6,7,8,1/6b,5,4,3,2,1,8,7,6b,5,4,3,2,1,8,7,
{1}6/2bz6[4:5],,7z3[4:5]/3h[4:1],,{4}1z5[8:9]*z5[8:9]/5h[4:1],,,,,,,3/4-8[8:5]*-8[8:5],,,,,

{16}
1,8,1,8,1,8,1,8,1,8,1,8,1,8,1,8,
2,8,1,8,1,8,1,8,2,8,1,8,1,8,1,8,
2,7,1,8,2,7,1,8,1,8,1,8,2,8,1,8,
1,7,1,8,2,8,1,7,1,8,2,8,1s5[8:3]*v3[8:3],7,1,{1}8,,,,,E

  • MASTER譜面がミス多めだったので、かなり修正しました。 -- 嵐雅 (2021-06-01 20:05:14)
  • MASの微修正を行いました。 -- Ruxeye (2021-08-27 01:57:15)
名前:
コメント:

タグ:

+ タグ編集
  • タグ:

このサイトはreCAPTCHAによって保護されており、Googleの プライバシーポリシー利用規約 が適用されます。

最終更新:2022年01月30日 19:11