マトリョシカ

BPM EASY BASIC ADVANCED EXPERT MASTER Re:MASTER
205 3 5 7+ 8+ 10 12+

EASY


BASIC

(205.0){1},,,,
{2}4,5,
{2}4,5,
{2}4,5,
{2}6,7,
{2}8,1,
{2}8,1,
{2}8,1,
{2}8,1,
{2}3,4,
{2}5,6,
{2}7,3/6,
{2}5,4,
{2}3,2/3,
{2}3,2/7,
{2}3,3/6,
{2}5,4,
{2}5b,4,
{4}6,6,6,,
{2}5,4,
{2}3,4,
{2}3,4,
{2}5,4,
{2}1,8,
{2}1/6,1/6,
{1}3h[4:3],
{2}2,1,
{2},7-2[2:1],{1},
{1}1h[2:1]/8h[2:1],
{2}8,1,
{1}2-6[2:1],,
{1}2h[2:1],
{2}1,8,
{1}7-3[2:1],,
{2}1/8,4/5,
{2}3,2,
{4}1,,8,8,
{4}1,,1,1,
{2},3,
{2}4,5,
{2}4/5,4/5,
{2}5,5,
{2}5/6,5,
{2}3/4,3,
{2}1/2,2,
{2}3,4,
{2}5,4/5,
{2}2/8,1/7,
{2}8,1,
{2}3/6,2b,
{2}5,4,
{2}5,4,
{2}5,4,
{2}5,4,
{2}6,3,
{2}6,3,
{2}6,3,
{2}6,3,
{2}1,1,
{4}2,2,2,,
{2}5/6,3/4,
{2}5,6,
{2}4/5,5/6,
{4}3/4,5,4,,
{2}3,2,
{1}1-4[2:1],
{2}3,2/7,
{2}6,2/7,
{2}3,2/7,
{2}2/7,2/7,
{2}1,2/7,
{4}8,8,2/7,,
{2}2,1/8,
{4}1,8,2,7b,
{2}1,1,
{2}2,3/4,
{2}1,8,
{2}7,5/6,
{2}5,6,
{2}7,2/7,
{2}8,8,
{4}2,2,3/8,
E

ADVANCED

(205.0){1},,,,
{4},1,,2,
{4},3,,4,
{4},5,,6,
{4},7,7,,
{4},8,,7,
{4},6,,5,
{4},4,,3,
{4},2,2,,
{4},8,8,1,
{4},2-7[4:1],,,
{4},4,4,5,
{4},6-3[4:1],,,
{4},8,8,7,
{4},8-5[4:1],,,
{4},4,4,3,
{4},4-1[4:1],,,
{4},8,,7,
{4},6,,5,
{4},4,,3,
{4},2,2,,
{4},1,2,1,
{4},3,3,,
{4},5,6,5,
{4}6,7,7,,
{4},3,4,3,
{4},1,2,1,
{4},8,7,8,
{4}6,2/7,2/7,,
{4}2h[1:1],,,3,
{4}6,8,1/8b,,
{2}6h[4:7],3,
{2}8,1,
{4}7h[1:1],,,6,
{4}3,1,1b/8,,
{2}2,6,
{4}3/4,5/6,3/4,,
{4},2,,3,
{4},8,8,,
{2}8h[2:1],1h[2:1],
{4},2,3,2/7,
{4},7,,6,
{4},1,1,,
{865},,,,,,,,,,,,,,,,,,,,,,,,,,,,,,,,,,,,,,,,,,,,,,,,,,,,,,,,,,,,,,,,,,,,,,,,,,,,,,,,,,,,,,,,,,,,,,,,,,,,,,,,,,,,,,,,,,,,,,,,,,,,,,,,,,,,,,,,,,,,,,,,,,,,,,,,,,,,,,,,,,,,,,,,,,,,,,,,,,,,,,,,,,,,,,,,,,,,,,,,,,,,,,,,,,,,,,{577}1h[577:290],,,,,,,,,,,,,,,,,,,,,,,,,,,,,,,,,,,,,,,,,,,,,,,,,,,,,,,,,,,,,,,,,,,,,,,,,,,,,,,,,,,,,,,,,,,,,,,,,,,,,,,,,,,,,,,,,,,,,,,,,,,,,,,,,,,,,,,,,,,,,,,,,,,,,,,,,,,,,,,,,,,,,,,,,,,,,,,,,,,,,,,,,,,,,,,,,,,,,,,,,,,,,,,,,,,,,,,,,,,,,,,,,,,,,,,,,,,,,,,,,,,,,,,,,,,,,,,,,,,,,,,,,,,,,,,,,,,,,,,,,,,,,,,,,,{4}8,
{4}7,6,5,3/6,
{4},2,,1,
{4},6,6,,
{2}7h[2:1],8h[2:1],
{4},7,6,2/7,
{4},7,,8,
{4},3,3,,
{4},1,8,3,
{4}6,4/5,3/6,2b/7b,
{4},8,,7,
{4},6,,5,
{4},4,,3,
{4},2,2b,,
{4},1,,2,
{4},3,,4,
{4},5,,6,
{4},7,7b,,
{4},1,2,1,
{4},3,3,,
{4},5,6,5,
{4}6,7/8,6/7,,
{4},3,4,3,
{4},1,2,1,
{4},8,7,8,
{4}6,5/6,4/5,,
{4},2-7[4:1],,,
{4},6-3[4:1],,,
{4},4-7[4:1],,,
{4},2-5[4:1],,,
{4},8-5[4:1],,,
{4},4-1[4:1],,,
{4},7-2[4:1],,,
{4}1/2,7/8,3/6,2b/7b,
{4}8h[1:1],,,3,
{4}6,2/7b,2/7b,,
{2}8,1,
{2}2,3,
{4}1h[1:1],,,7,
{4}2,3/6b,3/6b,,
{2}2,1,
{4}7/8,1/2,7/8,
E

EXPERT

(205.0){1},,,,
{4}4,3,2,1,
{4}8,7,6,5,
{4}4,5,6,7,
{4}8,1,2,3,
{2}5h[4:1],4h[4:1],
{2}5h[4:1],4h[4:1],
{2}8h[4:1],1h[4:1],
{2}8h[4:1],1h[4:1],
{4}3,4,5,6,
{769},,{865}2h[1827:452],,,,,,,,,,,,,,,,,,,,,,,,,,,,,,,,,,,,,,,,,,,,,,,,,,,,,,,,,,,,,,,,,,,,,,,,,,,,,,,,,,,,,,,,,,,,,,,,,,,,,,,,,,,,,,,,,,,,,,,,,,,,,,,,,,,,,,,,,,,,,,,,,,,,,,,,,,,,,,,,,,,,,,,,,,,,,,,,,,,,,,,,,,,,,,,,,,,,,,,,,,,,,,,,,,,,,,{4}1,6h[4:1],7,
{2}2/7,3/6,
{4}5h[4:1],3,4h[4:1],6,
{4}5,4,3,2,
{2}3h[4:1],2/7,
{4}3,3/6,1,8,
{4}2/4,3/5,4/6,6-2[4:1],
{2},3,
{4}5/6,5/6,5/6,,
{4}5,4,3,2,
{4}1,8,7,,
{4}3,2,6,7,
{4}5h[1827:452],4,4h[4:1],5,
{2}1/8,2/7,
{2}1/6,1/6,
{1}2h[4:3]/3h[4:3],
{4}4,6/7,8h[4:1],,
{4}5,4,4/5,,
{1}2^7[2:1],
{1}1-4[4:1]/8-5[4:1],
{2}6h[4:1],3h[4:1],
{2}7h[4:1],2h[4:1],
{1}1-5[4:1],
{2}5/7h[2:1],6,
{2}8/2h[2:1],1,
{1}7-2[2:1],
{4}4,4/5,3/4,,
{8}3/6,,1b,1,,4/5,,2/7,
{8},6,6,,2b/8b,,,,
{4}1/6,8,7,8,
{4}3/8,1,2,1,
{8}3/4,,6,6,,2/7,,1/8,
{8},3,3,,2/7,,,,
{4}6,5,4,3,
{4}7,8,2/7,,
{8}5/6,,2,2,,1/8,,7,
{8},5,5,,3b/6b,,,,
{4}1/2,7,2/3,6,
{4}3,4,5,6,
{8}2/6,,8,8,,3/7,,2/8,
{8},6,6/8,,2/7,,,,
{4}7/8,1/2,3/4,5/6,
{4}1,8,2b/7b,,
{2}7/8,1/2,
{2}7/8,1/2,
{2}1/7,2/8,
{2}1/7,2/8,
{4}6h[4:1],8,3h[4:1],1,
{4}6h[4:1],8,3h[4:1],1,
{4}1/7,7,2/8,2,
{4}1/7,7,2/8,2,
{4}2,1,8,7,
{4}1/8,1/8,1/8,,
{4}2,3,5/6h[4:1],5,
{4}3/4,5/6,2/3,,
{4}2,1,8,5/7,
{4}3/4,5/6,2/4,,
{4}7,6,2,3,
{4}3/6,1-4[4:1],,,
{4}6,8,3,1,
{4}7h[2:1],8,1,,
{4}2,3^6[4:1],,,
{4}6,7^2[4:1],,,
{4}8,8^5[4:1],,,
{4}1,1^4[4:1],,,
{4}2/4,3/5,4/6,5/7,
{4}8h[4:1],7,1h[4:1],2,
{8}6,,5,,4,,3,4,
{4}3,5,6/7,,
{4}2h[4:1],3,3h[4:1],4,
{4}4h[4:1],5,1/8,,
{8}3,,4,,5,,6,5,
{4}6,3,2/7,,
{4}6,5,4,3,
{4}2b/8b,1b/7b,3b/8b,
E

MASTER

(205){1},,,{4}
1,1,56,34,
8,7,1,2,
7,{8}8,1,{4}2,,
4,3,5,6,
3,{8}4,5,{4}6,,
2,1,7,8,
{8}1,2,1,8,{4}7,,
6,5,3,4,
{8}5,6,5,4,{4}3,,

2,28,7,17,
2,17,28,,
3,35,6,46,
3,56,34,,
8,28,1,17,
2,17,28,,
34,45,56,45,
13,28,7/1h[2:1],{8},8,

{4}8,7,1,2,
{8}1,8,7,8,{4}1,,
4,3,5,6,
{8}5,4,3,4,{4}5,,

78,78,67,67,
13,24,13,,
13,13,24,24,
57,68,57,,
27,17,27,28,
37,26,37,,
18,28,18,17,
67,56,45,,

{8}
2,,4,4,5,,5,,
7,,5,5,4,,4,,
{4}
3,45,6,45,
17,28,17,,
{8}
7,,5,5,3,,4,,
2,,4,4,6,,5,,
{4}
67,18,23,45,
67,23,6b/7b,,

{8}
2,,6,7,6,,3,2,
3,,7,3,7,,,,
8,7,8,7,1,8,1,8,
2,1,2,1,2,,2,,
7,,3,2,3,,6,7,
6,,2,6,2,,,,
1,2,1,2,8,1,8,1,
7,8,7,8,7,,,,
1,,8,7,8,,4,3,
4,,8,4,8,,,,
4,4,5,5,3,3,6,6,
2,2,7,2,7,,7,,
8,,1,2,1,,5,6,
5,,1,5,1,,,,
8,8,1,1,7,7,2,2,
6,6,4,6,4,,,,
8,,1,8,7,,6,,
6,7,8,1,2h[4:1],,,,
4,,5,4,3,,2,,
2,3,4,5,6h[4:1],,,,
1,,8,1,2,,3,,
3,2,1,8,7h[4:1],,,,
5,,4,5,6,,7,,
7,6,5,4,3h[4:1],,,,
4,,3,,5,,6,5,
4,4,3,4,5,,,5,
,5,6,,4,,3,4,
5,5,6,5,4,,,,
2,,6,,7,,3,,
16,,37,,25,,,8,
,8,4,,1,,5,,
47,,26,,38,,,,

{2}
1-4[8:1],5-8[8:1],
3-6[8:1],7-2[8:1],
5-8[8:1],1-4[8:1],
7-2[8:1],3-6[8:1],
2-5[8:1],6-1[8:1],
4-7[8:1],8-3[8:1],
6-1[8:1],2-5[8:1],
8-3[8:1],4-7[8:1],
{4}
1h[2:1],,,5,
3,34,6,56,
4,17,26,35,
4-8[4:1],,,,
8h[2:1],,,4,
6,56,3,34,
5,28,37,46,
1b/5b,3b/7b,1b/5b,,
{1},,
E

Re:MASTER

(205){1},,,{4}1b,2b,3b,4b,

{8}
2h[4:1],,1,1,2,4,,7,
8,6,5,4,25,,1,8,
7h[4:1],,8,8,7,5,,2,
1,3,4,3,6,,34,,
6h[4:1],,5,5,6,8,,3,
4,2,1,2,16,,5,4,
3h[4:1],,4,4,3,1,,6,
5,7,8,7,2,,78,,

3,4,2,6,5,7,2^5[16:1],,
2^7[16:1],,2q3[4:1],,,,,6h[4:1],
,5,7,3,4,2,7^4[16:1],,
7^2[16:1],,7p6[4:1],,,,,,
3,4,2,6,5,7,2^5[16:1],,
2^7[16:1],,2q3[4:1],,,,,6h[4:1],
,5,7,3,4,2h[4:1],,7,
2^7[16:1]/7,,6q3[8:1],,,,,25,

2^5[16:1]/5,,1,,4/7^4[16:1],,8,,
2^5[16:1]/5,,1,,4/7^4[16:1],,8,,
1/6^1[16:1],,5,,3^8[16:1]/8,,4,,
1^4[16:1]/6^1[16:1],,,,38,,45,,

2,1,3,7,8,6,3^6[16:1],,
3^8[16:1],,3q8[8:1],,,,,2h[4:1],
,1,3,7,8,6,3,,
1/8h[4:3],,2,,3h[4:1],,,,
7,8,6,2,1,3,6^3[16:1],,
6^1[16:1],,6p1[8:1],,,,,2h[4:1],
,1,1^6[4:1],,6^3[4:1],,3^8[4:1],,
8>7[2:1],,,,,,,,

3h[4:1],,4,4,7h[4:1],,8,8,
8z4[4:1],,,,,,,2h[4:1],
,1,1,,6h[4:1],,5<3[2:1],5q3[8:3],
,,,,,,,,
6h[4:1],,5,5,2h[4:1],,1,1,
1p8[4:1],,,,,,,,
2^4[16:1],,7^4[16:1],,8>4[16:1],,,,
5b/6b,,2b/5b,,4b/8b,,,,

1-5[8:1],,1,8-4[16:1],,8,,1>5[8:1],
,1,7-3[16:1],,1b,,45,,
{16}1,,6,5,6,,1,,8,,3,4,3,,8,,
{8}2h[4:1],,1v4[16:1],1,1v6[16:1],,,,
8-4[8:1],,8,1-5[16:1],,1,,8<4[8:1],
,8,2-6[16:1],,8b,,45,,
3h[8:3]/6h[8:3],,,,3-5[16:1]/6v3[16:1],,,,
3v6[16:1]/6-4[16:1],,,,27,,,,
7-4[8:1],,7,8-3[16:1],,8,,5-8[8:1],
,5,2h[4:1],,4b,,45,,
{16}8,,3,4,3,,8,,1,,6,5,6,,1,,
{8}7h[4:1],,8v5[16:1],8,8v3[16:1],,,,
2^5[8:1],,2,1^6[16:1],,1,2,2,
,17,2^4[16:1]/6^4[16:1],,,,,,
2v7[16:1]/7-1[16:1],,,,2-8[16:1]/7v2[16:1],,,,
1^3[16:1]/8^6[16:1],,1-5[16:1]/8-4[16:1],,,,,,

2^5[16:1]/5,,1,,4/7^4[16:1],,8,,
2^5[16:1]/5,,1,,4/7^4[16:1],,8,,
1/6^1[16:1],,5,,3^8[16:1]/8,,4,,
1^4[16:1]/6^1[16:1],,,,38,{16}6,5,{8}6,,
7^4[16:1],,8,,2^5[16:1]/5,,1,,
4/7^4[16:1],,8,,2^5[16:1]/5,,1,,
3^8[16:1]/8,,4,,1/6^1[16:1],,5,,
3^8[16:1]/8^5[16:1],,,,16,{16}3,4,{8}3,,

7,5,8,2,4,1,5^8[16:1],,
5^2[16:1],,5p8[8:1],,,,,2h[4:1],
,4,1,7,5,8,4^1[16:1],,
4^7[16:1],,4q1[8:1],,,,,,
2,4,1,7,5,8,1-6[16:1],,
1p4[8:1],,1p2[8:1],,,,,7h[4:1],
,5,8,2,4,1,8-3[16:1],,
8q5[8:1],,8q7[8:1],,,,,,

1^6[16:1],,2,2,3^8[16:1],,4,4,
5^2[16:1],,6,6,7^4[16:1],,8,8,
1^6[16:1],,2,2,3^8[16:1],,4,4,
5^2[16:1],,6,6,7,,12,,
8^3[16:1],,7,7,6^1[16:1],,5,5,
4^7[16:1],,3,3,2^5[16:1],,1,1,
8^3[16:1],,7,7,6,,45,,
7-4[16:1]/8-3[16:1],,7b/8b,,1-6[16:1]/2-5[16:1],,1b/2b,,

1h[4:1],,8p2[4:1],8,8,,1^4[16:1],,
1^6[16:1],,1-5[16:1],,1,,4/6^1[4:1],,
1^4[4:1],,4^7[4:1],,7,,2,,
1^4[16:1]/8^5[16:1],,,,27,,45,,
8h[4:1],,1q7[4:1],1,1,,8^5[16:1],,
8^3[16:1],,8-4[16:1],,8,,3^8[4:1]/5,,
8^5[4:1],,5^2[4:1],,2,,7,,
1b/2b,,1b/6b,,4b/8b,,,,

名前:
コメント:

タグ:

+ タグ編集
  • タグ:

このサイトはreCAPTCHAによって保護されており、Googleの プライバシーポリシー利用規約 が適用されます。

最終更新:2023年01月03日 14:39