炎歌 -ほむらうた-

BPM EASY BASIC ADVANCED EXPERT MASTER
108 2 4 6 10+ 13

EASY


BASIC


ADVANCED


EXPERT


MASTER

(108){1},,{8}
3h[4:1],2,1h[4:1],8,7h[4:1],6,5h[4:1],6,
6h[4:1],7,8h[4:1],1,2h[4:1],3,,,
7h[4:1],6,5h[4:1],4,3h[4:1],2,1h[4:1],2,
2h[4:1],3,4h[4:1],5,6h[4:1],7,,,
1h[4:1],2,3h[4:1],4,8h[4:1],7,6h[4:1],5,
2h[4:1],1,5h[4:1],4,8h[4:1],7,6h[1:1],4,
,4,,4,,4,4b,8-4[2:1],
,,,,,,,

{16}
,,1,,1,,8,,8,,7,,7,6,5,4,
3-8[4:1],,,,,,,,5,,,,,,,,
,,8,,8,,1,,1,,2,,2,3,4,5,
6-1[4:1],,,,,,,,4,,,,,,,,
,,7,,7,,6,,6,,5,,5,4,3,2,
1-6[4:1],,,,,,,,4,,,,,,18,3-6[16:5],
3^6[4:1],,,,,,,,,,4,,3,,2,,
{4}1-5[8:1],7-3[8:1],8-4[8:1],2-6[8:1],

{8}
,1,1-6[8:1],1,,2,2-5[8:1],2,
,7,7-4[8:1],7,,8,8-3[8:1],8,
,1,1^6[8:1],1,,2,2^5[8:1],2,
,7,7^4[8:1],7,,8,8^3[8:1],,
,1,1^4[8:1],1,,6,6^3[8:1],6,
,7,7^2[8:1],7,,4,4,{16}8-4[8:1],8b,
8-5[8:1],,,,,,1-4[8:1],1b,1-5[8:1],,,,,,1-4[16:10],8-5[16:9],
{1}1b,

{4}7h[4:1],6h[4:1],5-2[8:1],5,
{16}2,2,3^6[4:1],2,,,,,,,,,,,3,2,
{4}1h[4:1],2h[4:1],3h[4:1],4-7[2:1],
4h[2:1],,,,
6h[4:1],5h[4:1],4-1[8:1],4,
{16}6,6,5^2[4:1],6,,,,,,,,,,,8^3[8:1],8,
3^6[8:1],,,,,,1^6[8:1],1,6^3[8:1],,,,,,2^5[8:1],2,
{1}5-1[2:1],,

{8}6^1[4:1],6,1-5[4:1],1,5^2[4:1],5,2-7[4:1],2,
7^4[4:1],7,4-8[4:1],4,8^3[4:1],8,,,
{16},,1,,2,,3,,8,,7,7,6,,5-1[8:3],,
{1}5h[2:1],
{8}8^5[4:1],8,5-1[4:1],5,1^4[4:1],1,4-8[4:1],4,
8^5[8:1],5-1[8:1],1^4[8:1],4-8[4:1],,,,,
{16}8,,8,7,6,,6,,3-8[8:1],,3,,5^2[2:1],,5,,
{8}
,,,,,,7-2[8:1]/8-5[8:1],,
,,3-6[8:1]/4-1[8:1],,,,1-4[8:1]/2-7[8:1],,
,,5-8[8:1]/6-3[8:1],,{16},,,,,,8-3[8:1],8,
7^4[8:1],,,,,,1-6[8:1],1,2^5[8:1],,,,,,8-4[8:5],,
8h[4:3],,,,,,,,,,,,,,6,7,
{8}8-4[4:1],8,1,7,2,6,3,5b,

,2^5[8:1],2,2^7[8:1],2,6^3[8:1],6,6^1[8:1],
6,2^5[8:1],2,2^7[8:1],2,6^3[8:1],6,,
,7^2[8:1],7,7^4[8:1],7,3^8[8:1],3,3^6[8:1],
3,7^2[8:1],7,7^4[8:1],7,3^8[8:1],3,,
,1-5[8:1],1^4[8:1],1-6[8:1],1-4[8:1],1-5[8:1],1,,
,8-3[8:1],8^5[8:1],8-4[8:1],8-5[8:1],8-3[8:1],8,,
{16}1,6,8,2,7,1,8,3,1,6,7,3,2,8,6,7,
{1}3h[1:1],,,
E

名前:
コメント:

タグ:

+ タグ編集
  • タグ:

このサイトはreCAPTCHAによって保護されており、Googleの プライバシーポリシー利用規約 が適用されます。

最終更新:2021年05月11日 22:08