|
EXPERT |
MASTER |
譜面制作者 |
如月 ゆかり |
ぴちネコ |
EASY
BASIC
ADVANCED
EXPERT
MASTER
(200){1},,{16}5,4,{2}
3bqq4[4:3]/7bqq8[4:3],,,
{8}3h[8:3],,,{16}4,5,{2}2bpp1[4:3]/
6bpp5[4:3],,,{4}7h[4:1],2h[4:1],8h[4:5],
1,1,1,1,1,{8}28,3,4h[4:1]/6,,5b,,{16}2,1,38,,,,7,8,
16,,,,2,1,48,,,,7,8,{8}1h[4:1]/5h[4:1],,,,2b/7b,8,3,6,
2,5,1,{16}7,7,{8}8,6,5,4,3-8[8:1],,,{16}7,6,5,,1,2,3,,
6,5,4,,{8}34,25,16,{16}7,8,7,8,7,8,7,8,{8}7h[4:1],,
4b,,{12}2,1,2,7,8,7,3,4,3,6,5,6,2,1,3,7,8,6,3,4,2,6,5,
7,{16}1,8,1,8,1,8,1,8,1,8,1,8,1,8,1,8,{32}1,2,3,4,5,6,
7,8,1,2,3,4,5,6,7,8,{2}1h[2:1],{16}8b,,2,1,2,,
7-5[8:1],8,7,8,7,,,,{8}2-4[8:1],6,2,,8-4[8:1],3,8,,
1-5[8:1],6,1,,7-1[8:1],7,,3-5[8:1],3,,1,8,3-8[8:1]/
7-4[8:1],,37,,,18,{16}7,8,7,,2-4[8:1],1,2,1,2,,,,{8}
7-5[8:1],3,7,,1-5[8:1],6,1,,8-4[8:1],3,8,,2-8[8:1],2,,
6-4[8:1],6,,8,1,26,,,,,{16}4b/8b,,,,7,6,15,,,,2,3,48,,,,
6,5,48,,,,3,4,15,,,,3b/6b,,,,18,,1,1,3,,8,8,6,,2,2,4,,7,7,
5,,1,1,3,,8,8,{4}6<3[16:3],,{16}4b,,6,5,6,,3-1[8:1],4,
3,4,3,,,,{8}6-8[8:1],2,36,,4-8[8:1],7,46,,5-1[8:1],2,
35,,3-5[8:1],3,,7-1[8:1],7,,2,3,4w8[8:1],,4b,,,26,{16}
3,4,3,,6-8[8:1],5,6,5,6,,,,{8}3-1[8:1],7,36,,5-1[8:1],2,
35,,4-8[8:1],7,46,,6-4[8:1],6,,2-8[8:1],2,,7,6,15,,,,,
1b-5[8:1],8,1-3[8:1],7,1-6[8:1],8,1-4[8:1],7,1-5[8:1],
8<1[8:3],1,8,,,,,8b-4[8:1],1,8-6[8:1],2,8-3[8:1],1,
8-5[8:1],2,8-4[8:1],1>8[8:3],8,1,,,,,
2bpp5[2:1]/7,,,6,6h[4:1],,,,
2/7bqq4[2:1],,,3,3h[4:1],,,,{4}
2b>5[4:1],5-1[4:1],1<6[4:1],6-2[4:1],2>5[4:1],
5-1[4:1],1,,{8}45,3,2,1,18,7,6,5,25,47,16,38,27,36,
1p4[16:1]/8q5[8:1],,1b/8b,,26,3,7,4,8,{16}2,2,{8}
1,3,4,5,6-1[8:1],,,{16}2,3,4,,8,7,6,,3,4,5,,{8}56,47,
38,{16}2,1,3,8,4,7,5,6,5h[8:1],,6,7,8,1,2,3,{8}4b/
5b,,28,1h[4:1]/7,,6,7,8,{16}2,3,4,5,8,7,6,5,{8}
1-5[8:1],,,{16}8,7,6,,1,2,3,,6,5,4,,{8}34,25,16,{16}
7,8,6,1,5,2,4,3,{4}4h[4:1],8b,{12}1,7,1,8,8,8,3,5,3,
4,4,4,2,8,2,1,1,1,4,6,4,5,5,5,1,7,2,6,3,5,4,4,4,5,5,5,
4,6,3,7,2,8,1,1,1,8,8,8,{16}1,2,3,4,7,6,5,4,2,1,8,7,6,
5,4,3,8,7,6,5,2,3,4,5,7,8,1,2,3,4,5,6,1,,,,{32}1,2,3,4,
5,6,7,8,1,2,3,4,5,6,7,8,{4}1,{16}1,5,2,6,1,5,2,6,1,5,
2,6,1,5,2,6,{4}1s5[8:1],,{8}6,7,8,{2}
1bqq6[4:3]/5bqq2[4:3],,,{8},3,2,1,{2}
8bpp3[4:3]/4bpp7[4:3],,,{8},8h[2:1],,,,{16}
1,1,1,1,1,1,1,1,1,1,1,1,1,1,1,1,{8}2b-5[8:1],2,
8-4[8:1],8,1-5[8:1],1,7-4[8:1],7,2-6[8:1],2,1-5[8:1],
1,8-4[8:1],8,7-3[8:1],7,{16}8,,,16,,,38,,{8}4,5,6,
2b/7b,,{16}2,1,3,8,2,1,3,8,2,1,3,8,2,1,3,8,2,1,3,8,
2,1,{8}3h[4:1]/8h[4:1],,,2b/7b,,{16}7,8,6,1,7,8,6,1,
7,8,6,1,7,8,6,1,7,8,6,1,7,8,6,1,7,8,6,,,,{8}35,5,46,3,
25,6,47,2,16,7,38,1,18,1-4[8:1]/8-5[8:1],,1b/8b,,
6,17,2,38,7,16,3,48,6,15,4,{16}8,8,8,8,8,8,8,8,
{1}8<1[2:1],{8}3,4,5,6,45,4-1[8:1]/5-8[8:1],,4b/5b,,
6,37,8,1,26,3,4,15,6,7,48,1,2,37,4,6,5,48,3,2,15,8,
7,16,5,4,38,{24}2,1,2,{8}1,37,46,5,3,26,1,8,37,6,5,
48,3,2,15,8,7,26,5,3,4,15,6,7,48,1,2,38,4,5,16,{24}
7-3[8:1],8,7,{8}8,,,2h[8:3],4,4,5h[8:3],3,3,4h[8:3],6,
6,7h[8:3],5,5,4,3,25,,7h[8:3],5,5,4h[8:3],6,6,
5h[8:3],3,3,2h[8:3],4,4,5,6,47,,2>5[8:1],7,2,7,,6,56,,
7<4[8:1],2,7,2,,3,34,,2>5[8:1],7,2,7,,6,56,,7,78,16,
25,34,56,27,1b/8b,{1},,
E
最終更新:2021年07月24日 15:06