KONNANじゃないっ!

BPM EASY BASIC ADVANCED EXPERT MASTER
155 2 4 6 8 11

EASY


BASIC


ADVANCED


EXPERT


MASTER

(155){4}
,,,18,
4-1[8:1],34,5-8[8:1],56,
4-1[8:1],34,5-8[8:1],56,
4-1[8:1],34,5-8[8:1],56,
4-1[8:1],34,{8}5h[4:1],8,{4}8,
5-8[8:1],56,4-1[8:1],34,
5-8[8:1],56,4-1[8:1],34,
5h[2:1],6,4h[2:1],3,
{16}8,7,6,5,4,3,2,1,8,,1b,,1b,,,,

7,,,,7,,,,2,3,4,5,6,,,,
2,,,,2,,,,7,6,5,4,3,,,,
1,2,3,4,5,,,,8,7,6,5,4,,,,
2,,,,7,,,,2,3,4,5,6,7,8,1,
2-5[2:1],,,,,,1-6[2:1],,,,,,,,,,
{1},{8}
1-4[2:1],,,,8-5[2:1],,,,
1^4[4:1],,,8^5[4:1],,,,,
{16}
3,4,3,4,3,,,,18,,,,18,,,,
6,5,6,5,6,,,,18,,,,18,,,,
3,5,3,5,3,,,,6,4,6,4,6,,,,
2,5,2,5,3,6,3,6,4,7,4,7,5-2[2:1],,,,
,,,,,,1-6[2:1],,,,,,,,,,
{1},{16}
2,,,,2,1,8,7,6h[4:1],,,,,,,,
7,,,,7,8,1,2,3h[4:1],,,,,,,,
5,4,3,2,1,8,7,6,5,,,,28,,,,
4,5,6,7,8,1,2,3,4,,,,17,,,,
7,6,5,4,3,2,1,8,7,,,,15,,,,
2,3,4,5,6,7,8,1,2,,,,48,,,,
1,8,7,6,5,4,3,2,1,,,,46,,,,
8,1,2,3,4,5,6,7,8,,,,35,,,,
2,1,8,7,6,5,4,3,7,8,1,2,3,4,5,6,
{4}1,8,4,5,{8}
2h[4:3],,,3,7h[4:3],,,4,
8h[4:3],,,1,5h[4:3],,,6,
2h[4:3],,,7,3h[8:13],,,,
4,,2,,4,,2h[8:7],,
,,4,8h[4:3],,,5,1h[8:7],
,,2,6h[8:3],,,,,
7-2[2:3],,,,3-6[8:1],,,,
8-5[2:1],,,,,,,,

1b,,1b,,1-5[8:1],7-3[7:1],1,7,
1,,,,8-4[8:1],2-6[8:1],8,2,
8,,,,1,5,8,4,
{4}1^6[4:1],6-1[4:1],1^4[4:1],4-1[4:1],
1,,{8}7-3[4:1],1,5,1,
7,,,,2-6[4:1],8,4,8,
2,,,,8,4,1,5,
{4}8-4[4:1],4^7[4:1],7^2[4:1],2^5[4:1],
5-1[4:1],,{16}8h[4:1],,,,1h[8:1],,2,3,
4,,,,,,,,1h[4:1],,,,8h[8:1],,7,6,
5,,,,,,,,2,,1,,8,,7,,
6h[8:1],,,7,8h[8:1],,,1,2h[8:1],,,3,4h[8:1],,,5,
3h[8:1],,,2,1h[8:1],,,8,7h[8:1],,,6,5h[8:1],,,4,
{8}
1h[8:3],,,5,56,,,,
8h[8:3],,,4,34,,,{16},8-4[4:1],
8b,,,4-7[4:1],4b,,,7-2[4:1],7b,,,2-5[4:1],2b,,,5-1[4:1],
{4}5b,,,1^6[2:3]/8^3[2:3],
18,,,,
,,,{8},2-7[8:1],
2h[4:1],,,2-5[8:1],2h[4:1],,,7-2[8:1],
7h[4:1],,,7-4[8:1],7h[4:1],,,{16},1-5[4:1],
1b,,,5-2[4:1],5b,,,2-7[4:1],2b,,,7-4[4:1],7b,,,4-8[4:1],
{4}4b,,,,

4-8[8:1],34,5-1[8:1],56,
4-8[8:1],34,5-1[8:1],56,
3-8[8:1],34,6-1[8:1],56,
3-8[8:1],34,6-1[8:1],56,
2^7[8:1],2b/5,7^2[8:1],7b/4,
2^7[8:1],2b/5,7^2[8:1],7b/4,
2^7[8:1],2b/5,7^2[8:1],7b/4,
{6}15,48,37,26,37,48,
{1}1^4[2:1]/5^8[2:1],
,
E

名前:
コメント:

タグ:

+ タグ編集
  • タグ:

このサイトはreCAPTCHAによって保護されており、Googleの プライバシーポリシー利用規約 が適用されます。

最終更新:2013年08月22日 15:17